Поиск

(Avant-Garde Jazz) [CD] Ingebrigt Haker Flaten & Hakon Kornstad - Elise - 2008, FLAC (tracks+.cue), lossless

(Avant-Garde Jazz) [CD] Ingebrigt Haker Flaten & Hakon Kornstad - Elise - 2008, FLAC (tracks+.cue), lossless
Ingebrigt Haker Flaten & Hakon Kornstad / Elise
Жанр: Avant-Garde Jazz
Носитель: CD
Страна-производитель диска (релиза): Sweden
Год издания: 2008
Издатель (лейбл): Compunctio
Номер по каталогу: COMPCD002
Страна исполнителя (группы): Norway
Аудиокодек: FLAC (*.flac)
Тип рипа: tracks+.cue
Битрейт аудио: lossless
Продолжительность: 00:37:00
Источник (релизер): what.cd, snusboksen
Наличие сканов в содержимом раздачи: нет
Треклист:
1. Ak, Mon Jeg Staar I Naade
2. Ak, Mon Jeg Staar I Naade
3. Paa Hinside Ørken
4. Etter Elise
5. Death And The Flower
6. Dagen Viger Og Gaar Bort
7. Skulde Jeg Min Gud Ei Prise
8. For Fimmerigs Land Maa Man Kjempe
 
Лог создания рипа
Exact Audio Copy V0.99 prebeta 5 from 4. May 2009
EAC extraction logfile from 25. January 2010, 13:19
Ingbrigt Haker Flaten & Hakon Kornstad / Elise
Used drive : Optiarc DVD RW AD-7203A Adapter: 2 ID: 0
Read mode : Secure
Utilize accurate stream : Yes
Defeat audio cache : Yes
Make use of C2 pointers : No
Read offset correction : 48
Overread into Lead-In and Lead-Out : No
Fill up missing offset samples with silence : Yes
Delete leading and trailing silent blocks : No
Null samples used in CRC calculations : Yes
Used interface : Native Win32 interface for Win NT & 2000
Gap handling : Appended to previous track
Used output format : User Defined Encoder
Selected bitrate : 128 kBit/s
Quality : High
Add ID3 tag : No
Command line compressor : C:\Program Files\FLAC\flac.exe
Additional command line options : -8 -T "artist=%a" -T "title=%t" -T "album=%g" -T "date=%y" -T "tracknumber=%n" -T "genre=%m" %s
TOC of the extracted CD
Track | Start | Length | Start sector | End sector
---------------------------------------------------------
1 | 0:00.00 | 0:54.07 | 0 | 4056
2 | 0:54.07 | 7:37.25 | 4057 | 38356
3 | 8:31.32 | 6:02.52 | 38357 | 65558
4 | 14:34.09 | 3:30.24 | 65559 | 81332
5 | 18:04.33 | 6:36.39 | 81333 | 111071
6 | 24:40.72 | 1:58.47 | 111072 | 119968
7 | 26:39.44 | 3:33.06 | 119969 | 135949
8 | 30:12.50 | 6:56.15 | 135950 | 167164
Track 1
Filename D:\Musikk\Ingbrigt Haker Flaten & Hakon Kornstad\2008 - Elise\01 - Ak, Mon Jeg Staar I Naade.wav
Pre-gap length 0:00:02.00
Peak level 13.3 %
Track quality 100.0 %
Test CRC EA0A5BE1
Copy CRC EA0A5BE1
Track not present in AccurateRip database
Copy OK
Track 2
Filename D:\Musikk\Ingbrigt Haker Flaten & Hakon Kornstad\2008 - Elise\02 - Ak, Mon Jeg Staar I Naade.wav
Pre-gap length 0:00:03.98
Peak level 99.2 %
Track quality 100.0 %
Test CRC F4211FF6
Copy CRC F4211FF6
Track not present in AccurateRip database
Copy OK
Track 3
Filename D:\Musikk\Ingbrigt Haker Flaten & Hakon Kornstad\2008 - Elise\03 - Paa Hinside Orken.wav
Pre-gap length 0:00:03.50
Peak level 78.9 %
Track quality 100.0 %
Test CRC 1F868FC6
Copy CRC 1F868FC6
Track not present in AccurateRip database
Copy OK
Track 4
Filename D:\Musikk\Ingbrigt Haker Flaten & Hakon Kornstad\2008 - Elise\04 - Etter Elise.wav
Pre-gap length 0:00:03.94
Peak level 99.5 %
Track quality 100.0 %
Test CRC 471A27D6
Copy CRC 471A27D6
Track not present in AccurateRip database
Copy OK
Track 5
Filename D:\Musikk\Ingbrigt Haker Flaten & Hakon Kornstad\2008 - Elise\05 - Death And The Flower.wav
Pre-gap length 0:00:02.58
Peak level 95.3 %
Track quality 100.0 %
Test CRC D9BB1965
Copy CRC D9BB1965
Track not present in AccurateRip database
Copy OK
Track 6
Filename D:\Musikk\Ingbrigt Haker Flaten & Hakon Kornstad\2008 - Elise\06 - Dagen Viger Og Gaar Bort.wav
Pre-gap length 0:00:04.54
Peak level 98.3 %
Track quality 100.0 %
Test CRC 2E6337E0
Copy CRC 2E6337E0
Track not present in AccurateRip database
Copy OK
Track 7
Filename D:\Musikk\Ingbrigt Haker Flaten & Hakon Kornstad\2008 - Elise\07 - Skulde Jeg Min Gud Ei Prise.wav
Pre-gap length 0:00:02.36
Peak level 61.4 %
Track quality 100.0 %
Test CRC 5FC60484
Copy CRC 5FC60484
Track not present in AccurateRip database
Copy OK
Track 8
Filename D:\Musikk\Ingbrigt Haker Flaten & Hakon Kornstad\2008 - Elise\08 - For Himmerigs Land Maa Man Kjempe.wav
Pre-gap length 0:00:04.94
Peak level 74.4 %
Track quality 100.0 %
Test CRC 61742025
Copy CRC 61742025
Track not present in AccurateRip database
Copy OK
None of the tracks are present in the AccurateRip database
No errors occurred
End of status report
 
Содержание индексной карты (.CUE)
REM GENRE Jazz
REM DATE 2008
REM DISCID 5F08B408
REM COMMENT "ExactAudioCopy v0.99pb5"
PERFORMER "Ingbrigt Haker Flaten & Hakon Kornstad"
TITLE "Elise"
FILE "01 - Ak, Mon Jeg Staar I Naade.wav" WAVE
TRACK 01 AUDIO
TITLE "Ak, Mon Jeg Staar I Naade"
PERFORMER "Ingbrigt Haker Flaten & Hakon Kornstad"
INDEX 01 00:00:00
TRACK 02 AUDIO
TITLE "Ak, Mon Jeg Staar I Naade"
PERFORMER "Ingbrigt Haker Flaten & Hakon Kornstad"
INDEX 00 00:50:08
FILE "02 - Ak, Mon Jeg Staar I Naade.wav" WAVE
INDEX 01 00:00:00
TRACK 03 AUDIO
TITLE "Paa Hinside Orken"
PERFORMER "Ingbrigt Haker Flaten & Hakon Kornstad"
INDEX 00 07:33:62
FILE "03 - Paa Hinside Orken.wav" WAVE
INDEX 01 00:00:00
TRACK 04 AUDIO
TITLE "Etter Elise"
PERFORMER "Ingbrigt Haker Flaten & Hakon Kornstad"
INDEX 00 05:58:56
FILE "04 - Etter Elise.wav" WAVE
INDEX 01 00:00:00
TRACK 05 AUDIO
TITLE "Death And The Flower"
PERFORMER "Ingbrigt Haker Flaten & Hakon Kornstad"
INDEX 00 03:27:55
FILE "05 - Death And The Flower.wav" WAVE
INDEX 01 00:00:00
TRACK 06 AUDIO
TITLE "Dagen Viger Og Gaar Bort"
PERFORMER "Ingbrigt Haker Flaten & Hakon Kornstad"
INDEX 00 06:31:73
FILE "06 - Dagen Viger Og Gaar Bort.wav" WAVE
INDEX 01 00:00:00
TRACK 07 AUDIO
TITLE "Skulde Jeg Min Gud Ei Prise"
PERFORMER "Ingbrigt Haker Flaten & Hakon Kornstad"
INDEX 00 01:56:20
FILE "07 - Skulde Jeg Min Gud Ei Prise.wav" WAVE
INDEX 01 00:00:00
TRACK 08 AUDIO
TITLE "For Himmerigs Land Maa Man Kjempe"
PERFORMER "Ingbrigt Haker Flaten & Hakon Kornstad"
INDEX 00 03:28:10
FILE "08 - For Himmerigs Land Maa Man Kjempe.wav" WAVE
INDEX 01 00:00:00
 
Состав
Ingebrigt Håker Flaten - double bass (tracks: 2 to 8)
Håkon Kornstad - Saxophone, Instruments [Flutonette] (tracks: 2 to 8)
18:58
344
Нет комментариев. Ваш будет первым!