Вы используете незарегистрированную версию компонента "Вкладки"!

Поиск

(Avant-Garde Jazz) [CD] IMI Kollektief (Jean-Marc Charmier, Alipio C. Neto, Els Vandeweyer, Joao Hasselberg, Rui Goncalves, Paulo Matrico) - Snug as a Gun - 2006 [Clean Feed CF059CD], FLAC (tracks+.cue), lossless

(Avant-Garde Jazz) [CD] IMI Kollektief (Jean-Marc Charmier, Alipio C. Neto, Els Vandeweyer, Joao Hasselberg, Rui Goncalves, Paulo Matrico) - Snug as a Gun - 2006 [Clean Feed CF059CD], FLAC (tracks+.cue), lossless
Треклист:
IMI Kollektief - Snug as a Gun
Жанр: Avant-Garde Jazz
Носитель: CD
Страна-производитель диска (релиза): Portugal
Год издания: 2006
Издатель (лейбл): Clean Feed
Номер по каталогу: CF059CD
Аудиокодек: FLAC (*.flac)
Тип рипа: tracks+.cue
Битрейт аудио: lossless
Продолжительность: 00:59:11
Источник (релизер): what.cd / спасибо 6060842
Наличие сканов в содержимом раздачи: нет
Треклист:
1. Prof Boum Boum (06:34)
2. Frevo Sonoris Causa (06:02)
3. Snug As A Gun (06:04)
4. Fucked Up (06:58)
5. Hitching (04:44)
6. Manhanhão (04:59)
7. The Hole In My Sole (05:36)
8. Thierry Na Caatinga (07:08)
9. Zedavis (04:56)
10. Pão De Deus (06:24)
Доп. информация:
Musicians:
Jean-Marc Charmier - trumpet & flugelhorn
Alípio C. Neto - tenor saxophone
Els Vandeweyer - vibraphone
João Hasselberg - double bass
Rui Gonçalves - drums
Paulo Matricó - zabumba & voice (on 8 only)
Recorded 12/12/2005 at Centro Cultural do Seixal in Portugal
IMI Kollektief - Snug as a Gun cleanfeed-records.com
Alípio C. Neto Official Site
 
... photo ...
 
... info ...
If you still think jazz is an American music, think again. This is jazz indeed, and none of the artists involved was born on the United States. A Brazilian, tenor saxophonist Alípio Carvalho Neto, a Belgium, vibraphonist Elsa Vandeweyer, a French, trumpeter Jean-Marc Charmier, and two Portuguese, bassist João Hasselberg and drummer Rui Gonçalves (with another Brazilian on one track, zabumbist and singer Paulo Matricó), play this New World turned All World music, and they do it with drive and purpose. And no, this is not a proof of the so called American Imperialism or a consequence of the economical Global Age we’re living in – simply put, there’s no boundaries for creative music. “Snug As a Gun” is not an experimental record, but the sax can be polyphonic and the vibes deal with free harmonics more than you would expect from something under the jazz banner. With the rhythm section grooving and swinging like hell on the back, compositions (themes by all IMI members) functions only as the margins for a improvisational work that likes to go through secondary water courses, zig-zaging along the way. There’s an Afro-Brazilian flavor in this music, of course (have you ever listened to a Brazilian musician who wouldn’t sound, well, Brazilian?), but these sounds are universal and could have been imagined and played by anyone around the planet. Or almost anyone, namely all those who feel that inovation, and the development of a distinct identity, doesn’t imply a disrespect of the tradition. The IMI Kollectief takes the history of jazz, without renegating anything, and builds from it. “Ancient to the future”, that’s what this music is.
~ cleanfeed-records.com
 
Лог создания рипа
X Lossless Decoder version 20121222 (142.2)
XLD extraction logfile from 2013-01-12 12:43:40 +0400
IMI Kollektief / Snug as a Gun
Used drive : HL-DT-ST DVDRW GX30N (revision RP09)
Media type : Pressed CD
Ripper mode : XLD Secure Ripper
Disable audio cache : OK for the drive with a cache less than 1375KiB
Make use of C2 pointers : NO
Read offset correction : 6
Max retry count : 20
Gap status : Analyzed, Appended
TOC of the extracted CD
Track | Start | Length | Start sector | End sector
---------------------------------------------------------
1 | 00:00:00 | 06:34:61 | 0 | 29610
2 | 06:34:61 | 06:02:17 | 29611 | 56777
3 | 12:37:03 | 06:04:21 | 56778 | 84098
4 | 18:41:24 | 06:58:12 | 84099 | 115460
5 | 25:39:36 | 04:44:02 | 115461 | 136762
6 | 30:23:38 | 04:59:54 | 136763 | 159241
7 | 35:23:17 | 05:35:72 | 159242 | 184438
8 | 40:59:14 | 07:08:24 | 184439 | 216562
9 | 48:07:38 | 04:56:67 | 216563 | 238829
10 | 53:04:30 | 06:24:64 | 238830 | 267693
AccurateRip Summary (DiscID: 0016ba48-00b49a8b-8f0df10a)
Track 01 : OK (v1, confidence 2/2)
Track 02 : OK (v1, confidence 2/2)
Track 03 : OK (v1, confidence 2/2)
Track 04 : OK (v1, confidence 2/2)
Track 05 : OK (v1, confidence 2/2)
Track 06 : OK (v1, confidence 2/2)
Track 07 : OK (v1, confidence 2/2)
Track 08 : OK (v1, confidence 2/2)
Track 09 : OK (v1, confidence 2/2)
Track 10 : OK (v1, confidence 2/2)
->All tracks accurately ripped.
All Tracks
Album gain : -2.56 dB
Peak : 0.988708
Statistics
Read error : 0
Jitter error (maybe fixed) : 0
Retry sector count : 0
Damaged sector count : 0
Track 01
Filename : /Users/anch/Music/FLAC/IMI Kollektief - 2006 - Snug as a Gun [FLAC]/01 - Prof Boum Boum.flac
/Users/anch/Music/FLAC/IMI Kollektief - 2006 - Snug as a Gun [MP3 320]/01 - Prof Boum Boum.mp3
/Users/anch/Music/FLAC/IMI Kollektief - 2006 - Snug as a Gun [MP3 V0]/01 - Prof Boum Boum.mp3
Pre-gap length : 00:02:00
Track gain : -2.98 dB
Peak : 0.988708
CRC32 hash (test run) : 90939C01
CRC32 hash : 90939C01
CRC32 hash (skip zero) : 38621A3F
AccurateRip v1 signature : 50BF2C8F
AccurateRip v2 signature : B0CFAEC7
->Accurately ripped (v1, confidence 2/2)
Statistics
Read error : 0
Jitter error (maybe fixed) : 0
Retry sector count : 0
Damaged sector count : 0
Track 02
Filename : /Users/anch/Music/FLAC/IMI Kollektief - 2006 - Snug as a Gun [FLAC]/02 - Frevo Sonoris Causa.flac
/Users/anch/Music/FLAC/IMI Kollektief - 2006 - Snug as a Gun [MP3 320]/02 - Frevo Sonoris Causa.mp3
/Users/anch/Music/FLAC/IMI Kollektief - 2006 - Snug as a Gun [MP3 V0]/02 - Frevo Sonoris Causa.mp3
Pre-gap length : 00:02:00
Track gain : -2.18 dB
Peak : 0.988647
CRC32 hash (test run) : 0E1E34E3
CRC32 hash : 0E1E34E3
CRC32 hash (skip zero) : 94543985
AccurateRip v1 signature : BED66301
AccurateRip v2 signature : DA201D51
->Accurately ripped (v1, confidence 2/2)
Statistics
Read error : 0
Jitter error (maybe fixed) : 0
Retry sector count : 0
Damaged sector count : 0
Track 03
Filename : /Users/anch/Music/FLAC/IMI Kollektief - 2006 - Snug as a Gun [FLAC]/03 - Snug as a Gun.flac
/Users/anch/Music/FLAC/IMI Kollektief - 2006 - Snug as a Gun [MP3 320]/03 - Snug as a Gun.mp3
/Users/anch/Music/FLAC/IMI Kollektief - 2006 - Snug as a Gun [MP3 V0]/03 - Snug as a Gun.mp3
Pre-gap length : 00:02:00
Track gain : -3.75 dB
Peak : 0.980499
CRC32 hash (test run) : 14030117
CRC32 hash : 14030117
CRC32 hash (skip zero) : AA0786DF
AccurateRip v1 signature : 37CCDD86
AccurateRip v2 signature : 6B8324A7
->Accurately ripped (v1, confidence 2/2)
Statistics
Read error : 0
Jitter error (maybe fixed) : 0
Retry sector count : 0
Damaged sector count : 0
Track 04
Filename : /Users/anch/Music/FLAC/IMI Kollektief - 2006 - Snug as a Gun [FLAC]/04 - Fucked Up.flac
/Users/anch/Music/FLAC/IMI Kollektief - 2006 - Snug as a Gun [MP3 320]/04 - Fucked Up.mp3
/Users/anch/Music/FLAC/IMI Kollektief - 2006 - Snug as a Gun [MP3 V0]/04 - Fucked Up.mp3
Pre-gap length : 00:02:00
Track gain : -3.09 dB
Peak : 0.988647
CRC32 hash (test run) : 991C83AC
CRC32 hash : 991C83AC
CRC32 hash (skip zero) : 90C96C98
AccurateRip v1 signature : F2BC8496
AccurateRip v2 signature : 09CE5B80
->Accurately ripped (v1, confidence 2/2)
Statistics
Read error : 0
Jitter error (maybe fixed) : 0
Retry sector count : 0
Damaged sector count : 0
Track 05
Filename : /Users/anch/Music/FLAC/IMI Kollektief - 2006 - Snug as a Gun [FLAC]/05 - Hitching.flac
/Users/anch/Music/FLAC/IMI Kollektief - 2006 - Snug as a Gun [MP3 320]/05 - Hitching.mp3
/Users/anch/Music/FLAC/IMI Kollektief - 2006 - Snug as a Gun [MP3 V0]/05 - Hitching.mp3
Pre-gap length : 00:02:00
Track gain : 0.84 dB
Peak : 0.892609
CRC32 hash (test run) : F781AA75
CRC32 hash : F781AA75
CRC32 hash (skip zero) : F517FAAC
AccurateRip v1 signature : 53561DB3
AccurateRip v2 signature : 5E6A95FD
->Accurately ripped (v1, confidence 2/2)
Statistics
Read error : 0
Jitter error (maybe fixed) : 0
Retry sector count : 0
Damaged sector count : 0
Track 06
Filename : /Users/anch/Music/FLAC/IMI Kollektief - 2006 - Snug as a Gun [FLAC]/06 - Manhanhão.flac
/Users/anch/Music/FLAC/IMI Kollektief - 2006 - Snug as a Gun [MP3 320]/06 - Manhanhão.mp3
/Users/anch/Music/FLAC/IMI Kollektief - 2006 - Snug as a Gun [MP3 V0]/06 - Manhanhão.mp3
Pre-gap length : 00:02:00
Track gain : 0.32 dB
Peak : 0.898010
CRC32 hash (test run) : F38E5E62
CRC32 hash : F38E5E62
CRC32 hash (skip zero) : 576B470D
AccurateRip v1 signature : EA39A99D
AccurateRip v2 signature : D5D03A7F
->Accurately ripped (v1, confidence 2/2)
Statistics
Read error : 0
Jitter error (maybe fixed) : 0
Retry sector count : 0
Damaged sector count : 0
Track 07
Filename : /Users/anch/Music/FLAC/IMI Kollektief - 2006 - Snug as a Gun [FLAC]/07 - The Hole in My Sole.flac
/Users/anch/Music/FLAC/IMI Kollektief - 2006 - Snug as a Gun [MP3 320]/07 - The Hole in My Sole.mp3
/Users/anch/Music/FLAC/IMI Kollektief - 2006 - Snug as a Gun [MP3 V0]/07 - The Hole in My Sole.mp3
Pre-gap length : 00:02:00
Track gain : -1.13 dB
Peak : 0.988647
CRC32 hash (test run) : 02FDAA5C
CRC32 hash : 02FDAA5C
CRC32 hash (skip zero) : 91A26B10
AccurateRip v1 signature : AA67B29F
AccurateRip v2 signature : C78EB569
->Accurately ripped (v1, confidence 2/2)
Statistics
Read error : 0
Jitter error (maybe fixed) : 0
Retry sector count : 0
Damaged sector count : 0
Track 08
Filename : /Users/anch/Music/FLAC/IMI Kollektief - 2006 - Snug as a Gun [FLAC]/08 - Thierry na Caatinga.flac
/Users/anch/Music/FLAC/IMI Kollektief - 2006 - Snug as a Gun [MP3 320]/08 - Thierry na Caatinga.mp3
/Users/anch/Music/FLAC/IMI Kollektief - 2006 - Snug as a Gun [MP3 V0]/08 - Thierry na Caatinga.mp3
Pre-gap length : 00:02:00
Track gain : -2.62 dB
Peak : 0.988678
CRC32 hash (test run) : 968715AE
CRC32 hash : 968715AE
CRC32 hash (skip zero) : DA2C7C4B
AccurateRip v1 signature : 1732A1E4
AccurateRip v2 signature : 4140CC74
->Accurately ripped (v1, confidence 2/2)
Statistics
Read error : 0
Jitter error (maybe fixed) : 0
Retry sector count : 0
Damaged sector count : 0
Track 09
Filename : /Users/anch/Music/FLAC/IMI Kollektief - 2006 - Snug as a Gun [FLAC]/09 - Zedavis.flac
/Users/anch/Music/FLAC/IMI Kollektief - 2006 - Snug as a Gun [MP3 320]/09 - Zedavis.mp3
/Users/anch/Music/FLAC/IMI Kollektief - 2006 - Snug as a Gun [MP3 V0]/09 - Zedavis.mp3
Pre-gap length : 00:02:00
Track gain : -4.07 dB
Peak : 0.988678
CRC32 hash (test run) : BD4BFC6B
CRC32 hash : BD4BFC6B
CRC32 hash (skip zero) : F74CD5D2
AccurateRip v1 signature : C9C763FF
AccurateRip v2 signature : D1F80871
->Accurately ripped (v1, confidence 2/2)
Statistics
Read error : 0
Jitter error (maybe fixed) : 0
Retry sector count : 0
Damaged sector count : 0
Track 10
Filename : /Users/anch/Music/FLAC/IMI Kollektief - 2006 - Snug as a Gun [FLAC]/10 - Pão de Deus.flac
/Users/anch/Music/FLAC/IMI Kollektief - 2006 - Snug as a Gun [MP3 320]/10 - Pão de Deus.mp3
/Users/anch/Music/FLAC/IMI Kollektief - 2006 - Snug as a Gun [MP3 V0]/10 - Pão de Deus.mp3
Pre-gap length : 00:02:00
Track gain : -2.41 dB
Peak : 0.979492
CRC32 hash (test run) : 0B62495A
CRC32 hash : 0B62495A
CRC32 hash (skip zero) : 6C035C69
AccurateRip v1 signature : 3B9FA0BD
AccurateRip v2 signature : 161698AA
->Accurately ripped (v1, confidence 2/2)
Statistics
Read error : 0
Jitter error (maybe fixed) : 0
Retry sector count : 0
Damaged sector count : 0
No errors occurred
End of status report
 
Содержание индексной карты (.CUE)
TITLE "Snug as a Gun"
PERFORMER "IMI Kollektief"
REM GENRE "Free Jazz"
REM DATE "2006"
REM DISCID 8F0DF10A
REM REPLAYGAIN_ALBUM_GAIN -2.56 dB
REM REPLAYGAIN_ALBUM_PEAK 0.988708
FILE "01 - Prof Boum Boum.flac" WAVE
TRACK 01 AUDIO
TITLE "Prof Boum Boum"
PERFORMER "IMI Kollektief"
REM REPLAYGAIN_TRACK_GAIN -2.98 dB
REM REPLAYGAIN_TRACK_PEAK 0.988708
INDEX 01 00:00:00
TRACK 02 AUDIO
TITLE "Frevo Sonoris Causa"
PERFORMER "IMI Kollektief"
REM REPLAYGAIN_TRACK_GAIN -2.18 dB
REM REPLAYGAIN_TRACK_PEAK 0.988647
INDEX 00 06:32:61
FILE "02 - Frevo Sonoris Causa.flac" WAVE
INDEX 01 00:00:00
TRACK 03 AUDIO
TITLE "Snug as a Gun"
PERFORMER "IMI Kollektief"
REM REPLAYGAIN_TRACK_GAIN -3.75 dB
REM REPLAYGAIN_TRACK_PEAK 0.980499
INDEX 00 06:00:17
FILE "03 - Snug as a Gun.flac" WAVE
INDEX 01 00:00:00
TRACK 04 AUDIO
TITLE "Fucked Up"
PERFORMER "IMI Kollektief"
REM REPLAYGAIN_TRACK_GAIN -3.09 dB
REM REPLAYGAIN_TRACK_PEAK 0.988647
INDEX 00 06:02:21
FILE "04 - Fucked Up.flac" WAVE
INDEX 01 00:00:00
TRACK 05 AUDIO
TITLE "Hitching"
PERFORMER "IMI Kollektief"
REM REPLAYGAIN_TRACK_GAIN 0.84 dB
REM REPLAYGAIN_TRACK_PEAK 0.892609
INDEX 00 06:56:12
FILE "05 - Hitching.flac" WAVE
INDEX 01 00:00:00
TRACK 06 AUDIO
TITLE "Manhanhão"
PERFORMER "IMI Kollektief"
REM REPLAYGAIN_TRACK_GAIN 0.32 dB
REM REPLAYGAIN_TRACK_PEAK 0.898010
INDEX 00 04:42:02
FILE "06 - Manhanhao.flac" WAVE
INDEX 01 00:00:00
TRACK 07 AUDIO
TITLE "The Hole in My Sole"
PERFORMER "IMI Kollektief"
REM REPLAYGAIN_TRACK_GAIN -1.13 dB
REM REPLAYGAIN_TRACK_PEAK 0.988647
INDEX 00 04:57:54
FILE "07 - The Hole in My Sole.flac" WAVE
INDEX 01 00:00:00
TRACK 08 AUDIO
TITLE "Thierry na Caatinga"
PERFORMER "IMI Kollektief"
REM REPLAYGAIN_TRACK_GAIN -2.62 dB
REM REPLAYGAIN_TRACK_PEAK 0.988678
INDEX 00 05:33:72
FILE "08 - Thierry na Caatinga.flac" WAVE
INDEX 01 00:00:00
TRACK 09 AUDIO
TITLE "Zedavis"
PERFORMER "IMI Kollektief"
REM REPLAYGAIN_TRACK_GAIN -4.07 dB
REM REPLAYGAIN_TRACK_PEAK 0.988678
INDEX 00 07:06:24
FILE "09 - Zedavis.flac" WAVE
INDEX 01 00:00:00
TRACK 10 AUDIO
TITLE "Pão de Deus"
PERFORMER "IMI Kollektief"
REM REPLAYGAIN_TRACK_GAIN -2.41 dB
REM REPLAYGAIN_TRACK_PEAK 0.979492
INDEX 00 04:54:67
FILE "10 - Pao de Deus.flac" WAVE
INDEX 01 00:00:00
По всем вопросам пишите личное сообщение пользователю M0p94ok.
16:18
133
Нет комментариев. Ваш будет первым!