Поиск

(Avant-Garde Jazz) [CD] Henry Threadgill Sextet - When Was That? - 1982, FLAC (tracks+.cue), lossless

(Avant-Garde Jazz) [CD] Henry Threadgill Sextet - When Was That? - 1982, FLAC (tracks+.cue), lossless
The Henry Threadgill Sextet \ When Was That?
Жанр: Avant-Garde Jazz
Носитель: CD
Страна-производитель диска (релиза): US
Год издания: неизвестен
Издатель (лейбл): About Time Records
Номер по каталогу: AT-1004
Страна исполнителя (группы): US
Аудиокодек: FLAC (*.flac)
Тип рипа: tracks+.cue
Битрейт аудио: lossless
Продолжительность: 00:41:05
Источник (релизер): soulseek
Наличие сканов в содержимом раздачи: нет
Треклист:
1. Melin (3:40)
2. 10 to 1 (11:29)
3. Just B (4:25)
4. When Was That? (10:22)
5. Soft Suicide at the Baths (11:07)

 
EAC log
Exact Audio Copy V1.0 beta 3 from 29. August 2011
EAC extraction logfile from 25. January 2014, 16:30
Henry Threadgill Sextet / When Was That?
Used drive : TSSTcorpCD/DVDW SH-S182M Adapter: 2 ID: 0
Read mode : Secure
Utilize accurate stream : Yes
Defeat audio cache : Yes
Make use of C2 pointers : No
Read offset correction : 6
Overread into Lead-In and Lead-Out : No
Fill up missing offset samples with silence : Yes
Delete leading and trailing silent blocks : No
Null samples used in CRC calculations : Yes
Used interface : Native Win32 interface for Win NT & 2000
Gap handling : Appended to previous track
Used output format : User Defined Encoder
Selected bitrate : 1024 kBit/s
Quality : High
Add ID3 tag : No
Command line compressor : C:\Program Files (x86)\Exact Audio Copy\FLAC\flac.exe
Additional command line options : -8 -V -T "ARTIST=%artist%" -T "TITLE=%title%" -T "ALBUM=%albumtitle%" -T "DATE=%year%" -T "TRACKNUMBER=%tracknr%" -T "GENRE=%genre%" -T "PERFORMER=%albuminterpret%" -T "COMPOSER=%composer%" %haslyrics%--tag-from-file=LYRICS="%lyricsfile%"%haslyrics% -T "ALBUMARTIST=%albumartist%" -T "DISCNUMBER=%cdnumber%" -T "TOTALDISCS=%totalcds%" -T "TOTALTRACKS=%numtracks%" -T "COMMENT=%comment%" %source% -o %dest%
TOC of the extracted CD
Track | Start | Length | Start sector | End sector
---------------------------------------------------------
1 | 0:00.00 | 3:40.20 | 0 | 16519
2 | 3:40.20 | 11:29.60 | 16520 | 68254
3 | 15:10.05 | 4:25.17 | 68255 | 88146
4 | 19:35.22 | 10:22.15 | 88147 | 134811
5 | 29:57.37 | 11:07.58 | 134812 | 184894
Track 1
Filename C:\Henry ThreadgillSextett - When Was That (1981)\01 Melin.wav
Pre-gap length 0:00:02.00
Peak level 74.1 %
Extraction speed 4.8 X
Track quality 100.0 %
Test CRC A2166A50
Copy CRC A2166A50
Track not present in AccurateRip database
Copy OK
Track 2
Filename C:\Henry ThreadgillSextett - When Was That (1981)\02 10 To 1.wav
Peak level 85.8 %
Extraction speed 6.2 X
Track quality 100.0 %
Test CRC 4E6250B3
Copy CRC 4E6250B3
Track not present in AccurateRip database
Copy OK
Track 3
Filename C:\Henry ThreadgillSextett - When Was That (1981)\03 Just B.wav
Peak level 81.2 %
Extraction speed 6.4 X
Track quality 100.0 %
Test CRC 0074A0E9
Copy CRC 0074A0E9
Track not present in AccurateRip database
Copy OK
Track 4
Filename C:\Henry ThreadgillSextett - When Was That (1981)\04 When Was That.wav
Peak level 86.1 %
Extraction speed 7.5 X
Track quality 100.0 %
Test CRC 2DE97764
Copy CRC 2DE97764
Track not present in AccurateRip database
Copy OK
Track 5
Filename C:\Henry ThreadgillSextett - When Was That (1981)\05 Soft Suicide At The Baths.wav
Peak level 83.8 %
Extraction speed 8.3 X
Track quality 100.0 %
Test CRC 5D7F7FEC
Copy CRC 5D7F7FEC
Track not present in AccurateRip database
Copy OK
None of the tracks are present in the AccurateRip database
No errors occurred
End of status report
---- CUETools DB Plugin V2.1.3
[CTDB TOCID: yQdylc1CQu0P8uxKUcYbR_.DIt0-] disk not present in database, Submit result: yQdylc1CQu0P8uxKUcYbR_.DIt0- has been uploaded
==== Log checksum D287BFF9304971FB4CEEBE37765BB1EBA37D613DF1796E985E51F016F2ECB7D3 ====
 
.cue
REM DATE 1982
REM DISCID 3E09A105
REM COMMENT "ExactAudioCopy v1.0b3"
PERFORMER "Henry Threadgill Sextet"
TITLE "When Was That?"
FILE "01 Melin.wav" WAVE
TRACK 01 AUDIO
TITLE "Melin"
PERFORMER "Henry Threadgill Sextet"
FLAGS DCP
INDEX 01 00:00:00
FILE "02 10 To 1.wav" WAVE
TRACK 02 AUDIO
TITLE "10 To 1"
PERFORMER "Henry Threadgill Sextet"
FLAGS DCP
INDEX 01 00:00:00
FILE "03 Just B.wav" WAVE
TRACK 03 AUDIO
TITLE "Just B"
PERFORMER "Henry Threadgill Sextet"
FLAGS DCP
INDEX 01 00:00:00
FILE "04 When Was That.wav" WAVE
TRACK 04 AUDIO
TITLE "When Was That?"
PERFORMER "Henry Threadgill Sextet"
FLAGS DCP
INDEX 01 00:00:00
FILE "05 Soft Suicide At The Baths.wav" WAVE
TRACK 05 AUDIO
TITLE "Soft Suicide At The Baths"
PERFORMER "Henry Threadgill Sextet"
FLAGS DCP
INDEX 01 00:00:00
 
auCDtect
-----------------------
DON'T MODIFY THIS FILE
-----------------------
PERFORMER: auCDtect Task Manager, ver. 1.5.1RC4 build 1.5.1.5
Copyright (c) 2008-2010 y-soft. All rights reserved
http://y-soft.org
ANALYZER: auCDtect: CD records authenticity detector, version 0.8.2
Copyright (c) 2004 Oleg Berngardt. All rights reserved.
Copyright (c) 2004 Alexander Djourik. All rights reserved.
FILE: 05 Soft Suicide At The Baths.flac
Size: 67732768 Hash: 6CAFB805263785EE2259685D72177937 Accuracy: -m0
Conclusion: CDDA 100%
Signature: 55A75078BE1E8907C3A8526FCCB8F472B299B642
FILE: 04 When Was That.flac
Size: 69548624 Hash: 79B8985F1528ECE5B6A3ADA28FC970A5 Accuracy: -m0
Conclusion: CDDA 100%
Signature: F3319B1DCD69753D6A87BD6677C9DFC6C3E6A267
FILE: 03 Just B.flac
Size: 25895056 Hash: 746A7D4FDD127FB4A7EDB3A3B04B7790 Accuracy: -m0
Conclusion: CDDA 100%
Signature: 0BED2D3559361673B9F02B103A6A3E5CC2E099AF
FILE: 02 10 To 1.flac
Size: 74545987 Hash: 5B06E29BDF812681C9C2E4A7F88ACC75 Accuracy: -m0
Conclusion: CDDA 100%
Signature: 3A45F00073A793643980DF80B6B39D869AE752C3
FILE: 01 Melin.flac
Size: 20516907 Hash: B7F8133A5EF65D244FACA19A3342185C Accuracy: -m0
Conclusion: CDDA 100%
Signature: A3036ABC61A19AEA60AB6542CAD1471604E6C67A
 
Line-up
Henry Threadgill
flute, bass flute, clarinet, alto saxophone, tenor saxophone, composer
Olu Dara
cornet
Craig Harris
trombone
Fred Hopkins
bass
Brian Smith
piccolo bass
John Betsch
drums
Pheeroan akLaff
drums

thanks to original uploader and ZarfFructose!
01:06
366
Нет комментариев. Ваш будет первым!