Вы используете незарегистрированную версию компонента "Вкладки"!

Поиск

(Avant-Garde Jazz) [CD] Hamiet Bluiett (feat. James Carter, Kahil El'Zabar, Alex Harding etc) - Blueblack - 2002, FLAC (tracks+cue), lossless

(Avant-Garde Jazz) [CD] Hamiet Bluiett (feat. James Carter, Kahil El'Zabar, Alex Harding etc) - Blueblack - 2002, FLAC (tracks+cue), lossless
Треклист:
Hamiet Bluiett (feat. James Carter, Kahil El'Zabar, Alex Harding etc) / Blueblack
Жанр: Avant-Garde Jazz
Носитель: CD
Страна-производитель диска (релиза): Canada
Год издания: 2002
Издатель (лейбл): Justin Time
Номер по каталогу: JUST 158-2
Страна исполнителя (группы): USA
Аудиокодек: FLAC (*.flac)
Тип рипа: tracks+cue
Битрейт аудио: lossless
Продолжительность: 55:16
Источник (релизер): LeeAndro
Наличие сканов в содержимом раздачи: нет
Треклист:
01 (You're Still) My Girl (In Spite of Everything) 06:42
02 Humpback 06:12
03 Zippin' 06:09
04 Blueblack / Prelude to a Scream 07:52
05 LG's Place 05:17
06 Lamentation for JJ / Ballad for Babs 03:10
07 Juxtaposition 08:39
08 Angles 03:24
09 Gittin' It Good 04:15
10 Sasa - The Here and Now 03:33
 
Лог создания рипа
Exact Audio Copy V1.0 beta 3 from 29. August 2011
EAC extraction logfile from 13. February 2015, 8:11
Hamiet Bluiett / Blueblack
Used drive : SONY DVD RW DRU-810A Adapter: 1 ID: 0
Read mode : Secure
Utilize accurate stream : Yes
Defeat audio cache : Yes
Make use of C2 pointers : No
Read offset correction : 618
Overread into Lead-In and Lead-Out : No
Fill up missing offset samples with silence : Yes
Delete leading and trailing silent blocks : No
Null samples used in CRC calculations : Yes
Used interface : Native Win32 interface for Win NT & 2000
Gap handling : Appended to previous track
Used output format : User Defined Encoder
Selected bitrate : 128 kBit/s
Quality : High
Add ID3 tag : No
Command line compressor : C:\Program Files (x86)\Exact Audio Copy\Flac\flac.exe
Additional command line options : -8 -V -T "ARTIST=%artist%" -T "TITLE=%title%" -T "ALBUM=%albumtitle%" -T "DATE=%year%" -T "TRACKNUMBER=%tracknr%" -T "TOTALTRACKS=%numtracks%" -T "GENRE=%genre%" -T "ALBUMARTIST=%albumartist%" -T "ALBUM ARTIST=%albumartist%" -T "COMMENT=EAC Secure Mode, Test & Copy, AccurateRip, FLAC -8" %source%
TOC of the extracted CD
Track | Start | Length | Start sector | End sector
---------------------------------------------------------
1 | 0:00.00 | 6:42.67 | 0 | 30216
2 | 6:42.67 | 6:12.02 | 30217 | 58118
3 | 12:54.69 | 6:09.11 | 58119 | 85804
4 | 19:04.05 | 7:52.43 | 85805 | 121247
5 | 26:56.48 | 5:17.15 | 121248 | 145037
6 | 32:13.63 | 3:10.05 | 145038 | 159292
7 | 35:23.68 | 8:39.45 | 159293 | 198262
8 | 44:03.38 | 3:24.23 | 198263 | 213585
9 | 47:27.61 | 4:15.09 | 213586 | 232719
10 | 51:42.70 | 3:33.14 | 232720 | 248708
Track 1
Filename F:\New Rips\Hamiet Bluiett - Blueblack (2001) [FLAC]\01 - My Girl.wav
Pre-gap length 0:00:02.00
Peak level 99.4 %
Extraction speed 4.7 X
Track quality 100.0 %
Test CRC 9CA48D57
Copy CRC 9CA48D57
Accurately ripped (confidence 2) [75592C1C] (AR v1)
Copy OK
Track 2
Filename F:\New Rips\Hamiet Bluiett - Blueblack (2001) [FLAC]\02 - Humpback.wav
Pre-gap length 0:00:02.71
Peak level 99.4 %
Extraction speed 5.5 X
Track quality 100.0 %
Test CRC B98C6A81
Copy CRC B98C6A81
Accurately ripped (confidence 2) [78A32268] (AR v1)
Copy OK
Track 3
Filename F:\New Rips\Hamiet Bluiett - Blueblack (2001) [FLAC]\03 - Zippin'.wav
Pre-gap length 0:00:02.57
Peak level 99.9 %
Extraction speed 5.4 X
Track quality 99.9 %
Test CRC 5A4F1FC4
Copy CRC 5A4F1FC4
Accurately ripped (confidence 2) [D5FDACB0] (AR v1)
Copy OK
Track 4
Filename F:\New Rips\Hamiet Bluiett - Blueblack (2001) [FLAC]\04 - Blueback--Prelude to a Scream.wav
Pre-gap length 0:00:02.46
Peak level 100.0 %
Extraction speed 6.8 X
Track quality 100.0 %
Test CRC 14845373
Copy CRC 14845373
Accurately ripped (confidence 2) [6D5D1CD5] (AR v1)
Copy OK
Track 5
Filename F:\New Rips\Hamiet Bluiett - Blueblack (2001) [FLAC]\05 - LG's Place.wav
Pre-gap length 0:00:03.25
Peak level 99.3 %
Extraction speed 7.1 X
Track quality 100.0 %
Test CRC 183ECA6A
Copy CRC 183ECA6A
Accurately ripped (confidence 2) [3FBBABF9] (AR v1)
Copy OK
Track 6
Filename F:\New Rips\Hamiet Bluiett - Blueblack (2001) [FLAC]\06 - Lamentation for JJ--Ballad for Babs.wav
Pre-gap length 0:00:03.36
Peak level 99.4 %
Extraction speed 6.9 X
Track quality 100.0 %
Test CRC 4A19FC3F
Copy CRC 4A19FC3F
Accurately ripped (confidence 2) [54B57BEC] (AR v1)
Copy OK
Track 7
Filename F:\New Rips\Hamiet Bluiett - Blueblack (2001) [FLAC]\07 - Juxtaposition.wav
Pre-gap length 0:00:03.31
Peak level 98.8 %
Extraction speed 8.0 X
Track quality 100.0 %
Test CRC 1F6B6B25
Copy CRC 1F6B6B25
Accurately ripped (confidence 2) [57C47102] (AR v1)
Copy OK
Track 8
Filename F:\New Rips\Hamiet Bluiett - Blueblack (2001) [FLAC]\08 - Angles.wav
Pre-gap length 0:00:02.67
Peak level 99.4 %
Extraction speed 7.7 X
Track quality 100.0 %
Test CRC BEF7A0AE
Copy CRC BEF7A0AE
Accurately ripped (confidence 2) [32C312F3] (AR v1)
Copy OK
Track 9
Filename F:\New Rips\Hamiet Bluiett - Blueblack (2001) [FLAC]\09 - Gittin' It Good.wav
Pre-gap length 0:00:03.26
Peak level 99.4 %
Extraction speed 8.1 X
Track quality 100.0 %
Test CRC CA2E2DB8
Copy CRC CA2E2DB8
Accurately ripped (confidence 2) [F9C6DFB8] (AR v1)
Copy OK
Track 10
Filename F:\New Rips\Hamiet Bluiett - Blueblack (2001) [FLAC]\10 - Sasa-The Here and Now.wav
Pre-gap length 0:00:03.16
Peak level 99.4 %
Extraction speed 8.0 X
Track quality 100.0 %
Test CRC ECC4C7E2
Copy CRC ECC4C7E2
Accurately ripped (confidence 2) [F238E40E] (AR v1)
Copy OK
All tracks accurately ripped
No errors occurred
End of status report
---- CUETools DB Plugin V2.1.3
[CTDB TOCID: y0RY5xq8QUwScfP7KxlS3r7_CHY-] found, Submit result: y0RY5xq8QUwScfP7KxlS3r7_CHY- has been confirmed
[8c2ec202] (2/2) Accurately ripped
==== Log checksum 3282B16727912991D99FE3C7FB0214542785E30514E6F834D2AC093E7B675CF8 ====
 
Содержание индексной карты (.CUE)
REM GENRE Jazz
REM DATE 2001
REM DISCID 860CF40A
REM COMMENT "ExactAudioCopy v1.0b3"
PERFORMER "Hamiet Bluiett"
TITLE "Blueblack"
FILE "01 - My Girl.flac" WAVE
TRACK 01 AUDIO
TITLE "My Girl"
PERFORMER "Hamiet Bluiett"
INDEX 01 00:00:00
TRACK 02 AUDIO
TITLE "Humpback"
PERFORMER "Hamiet Bluiett"
FLAGS DCP
INDEX 00 06:39:71
FILE "02 - Humpback.flac" WAVE
INDEX 01 00:00:00
TRACK 03 AUDIO
TITLE "Zippin'"
PERFORMER "Hamiet Bluiett"
FLAGS DCP
INDEX 00 06:09:20
FILE "03 - Zippin'.flac" WAVE
INDEX 01 00:00:00
TRACK 04 AUDIO
TITLE "Blueback--Prelude to a Scream"
PERFORMER "Hamiet Bluiett"
FLAGS DCP
INDEX 00 06:06:40
FILE "04 - Blueback--Prelude to a Scream.flac" WAVE
INDEX 01 00:00:00
TRACK 05 AUDIO
TITLE "LG's Place"
PERFORMER "Hamiet Bluiett"
FLAGS DCP
INDEX 00 07:49:18
FILE "05 - LG's Place.flac" WAVE
INDEX 01 00:00:00
TRACK 06 AUDIO
TITLE "Lamentation for JJ--Ballad for Babs"
PERFORMER "Hamiet Bluiett"
FLAGS DCP
INDEX 00 05:13:54
FILE "06 - Lamentation for JJ--Ballad for Babs.flac" WAVE
INDEX 01 00:00:00
TRACK 07 AUDIO
TITLE "Juxtaposition"
PERFORMER "Hamiet Bluiett"
FLAGS DCP
INDEX 00 03:06:49
FILE "07 - Juxtaposition.flac" WAVE
INDEX 01 00:00:00
TRACK 08 AUDIO
TITLE "Angles"
PERFORMER "Hamiet Bluiett"
FLAGS DCP
INDEX 00 08:36:53
FILE "08 - Angles.flac" WAVE
INDEX 01 00:00:00
TRACK 09 AUDIO
TITLE "Gittin' It Good"
PERFORMER "Hamiet Bluiett"
FLAGS DCP
INDEX 00 03:20:72
FILE "09 - Gittin' It Good.flac" WAVE
INDEX 01 00:00:00
TRACK 10 AUDIO
TITLE "Sasa-The Here and Now"
PERFORMER "Hamiet Bluiett"
FLAGS DCP
INDEX 00 04:11:68
FILE "10 - Sasa-The Here and Now.flac" WAVE
INDEX 01 00:00:00
 
Лог проверки качества
-----------------------
DON'T MODIFY THIS FILE
-----------------------
PERFORMER: auCDtect Task Manager, ver. 1.6.0 RC1 build 1.6.0.1
Copyright (c) 2008-2010 y-soft. All rights reserved
http://y-soft.org
ANALYZER: auCDtect: CD records authenticity detector, version 0.8.2
Copyright (c) 2004 Oleg Berngardt. All rights reserved.
Copyright (c) 2004 Alexander Djourik. All rights reserved.
FILE: 01 - My Girl.flac
Size: 50174831 Hash: 8813142BD13247FA34235A0845BC5C31 Accuracy: -m0
Conclusion: CDDA 100%
Signature: 7F6F4524EF339A70689F954DC827762B4444DF8B
FILE: 02 - Humpback.flac
Size: 32572996 Hash: 047EEBE7BBC07D8C876109AFBA4552A8 Accuracy: -m0
Conclusion: MPEG 100%
Signature: 68A2F52B3640A0D27DCCB4919F20804FAA27123C
FILE: 03 - Zippin'.flac
Size: 44692372 Hash: 85C5C9A623292315DE3B77CAE2273F34 Accuracy: -m0
Conclusion: CDDA 100%
Signature: 3AAC4EA902F5232B76394D1DED762139BB65794E
FILE: 04 - Blueback--Prelude to a Scream.flac
Size: 43776192 Hash: 234D032EF8FF9EFE0916C7FB706721C8 Accuracy: -m0
Conclusion: MPEG 100%
Signature: A84664780787AEF8C290B3493F049782B7A79163
FILE: 05 - LG's Place.flac
Size: 30601735 Hash: 2C36B1DCC0A0124110BC3DDB4F1711DE Accuracy: -m0
Conclusion: CDDA 100%
Signature: 1EACFA92880DCDBC30965F7C49326A5281E038DB
FILE: 06 - Lamentation for JJ--Ballad for Babs.flac
Size: 18595515 Hash: 6EEF2250B23BB252E7D43C342CECCFED Accuracy: -m0
Conclusion: CDDA 100%
Signature: 3EB636C4226A375F006268937AC37ADB9B6FCE6F
FILE: 07 - Juxtaposition.flac
Size: 44904509 Hash: 37DD3EA125661B395CA88741A5283ADF Accuracy: -m0
Conclusion: CDDA 100%
Signature: FE5B29C849362F5B9AF327805796B20077389EDB
FILE: 08 - Angles.flac
Size: 17055348 Hash: 6C97F71B53195872E6DD83666AFB1CEE Accuracy: -m0
Conclusion: CDDA 100%
Signature: DAC3030B0BA8E3461FA81F684B1DDC23FFE72B73
FILE: 09 - Gittin' It Good.flac
Size: 30188575 Hash: 8621A624A959C0DD1DF8192ED8D1C5C8 Accuracy: -m0
Conclusion: CDDA 100%
Signature: A381E423652F54052163D23F7F880F2C0AE29CE2
FILE: 10 - Sasa-The Here and Now.flac
Size: 18842709 Hash: F756CA0D5D1CDAA71624054E7D4CC885 Accuracy: -m0
Conclusion: CDDA 99%
Signature: 71A01F2DB4FB719BCB9546B7D39EC2C602C4F6DA
 
Скриншот спектра частот
Доп. информация: Recording Date: January 13, 2001 - January 15, 2001
 
Об исполнителе (группе)
Biography by Chris Kelsey --
The most prominent baritone saxophonist of his generation, Hamiet Bluiett combines a blunt, modestly inflected attack with a fleet, aggressive technique, and (maybe most importantly) a uniform hugeness of sound that extends from his horn's lowest reaches to far beyond what is usually its highest register. Probably no other baritonist has played so high, with so much control; Bluiett's range travels upward into an area usually reserved for the soprano or even sopranino. His technical mastery aside, Bluiett's solo voice is unlikely to be confused with any other. Enamored with the blues, brusque and awkwardly swinging, in his high-energy playing Bluiett makes a virtue out of tactlessness; on ballads he assumes a considerably more lush, romantic guise. Like his longtime collaborator, tenor saxophonist David Murray, Bluiett incorporates a great deal of conventional bebop into his free playing. In truth, Bluiett's music is not free jazz at all, but rather a plain-spoken extension of the mainstream tradition.
BirthrightBluiett was first taught music as a child by his aunt, a choral director. He began playing clarinet at the age of nine. He took up the flute and bari sax while attending Southern Illinois University. Bluiett left college before graduating. He joined the Navy, in which he served for several years. He moved to St. Louis in the mid-'60s, where he met and played with many of the musicians who would become the musicians' collective known as the Black Artists Group -- Lester Bowie, Charles "Bobo" Shaw, Julius Hemphill, and Oliver Lake, among others. Bluiett moved to New York in 1969; there he joined Sam Rivers' large ensemble and worked freelance with a variety of musicians. In 1972, Bluiett's avant-garde garrulousness and his competency as a straight-ahead player gained him a place in one of Charles Mingus' last great bands, which also included pianist Don Pullen. Bluiett stayed with Mingus until 1975. In 1976, he recorded the material that would comprise his first two albums as a leader, Endangered Species and Birthright.
In December of 1976, Bluiett played a one-shot concert in New Orleans with Murray, Lake, and Hemphill. That supposedly ad hoc group continued to perform and record as the World Saxophone Quartet, which in the '80s became arguably the most popular free jazz band ever. the WSQ's early free-blowing style eventually transformed into a sophisticated and largely composed mélange of bebop, Dixieland, funk, free, and various world musics, its characteristic style anchored and largely defined by Bluiett's enormous sound. The late Hemphill left the quartet in 1989 and in the decades since his place in the group has been filled by a sequence of reedmen; meanwhile, Bluiett has continued (along with Murray and Lake) to record and tour with the WSQ well into the 2000s.
Young Warrior, Old Warrior Throughout his performing and recording career, Bluiett has also led his own ensembles and recorded a number of strong, progressive-mainstream albums for Black Saint/Soul Note. Starting in the mid-'90s, Bluiett began recording and leading sessions for Mapleshade Records (e.g., Young Warrior, Old Warrior, 1995; Bluiett's Barbeque Band, 1996; If Trees Could Talk, 2002), and has also recorded for Justin Time, including 1998's Libation for the Baritone Saxophone Nation (recorded by the Bluiett Baritone Nation) and Same Space; 2000's With Eyes Wide Open; 2001’s The Calling (with D.D. Jackson and Kahil El’Zabar); and 2002’s Blueblack (like Libation, another four-bari outing). Bluiett has lived in his hometown of Brooklyn, IL, since 2002.
 
Об альбоме (сборнике)
Review by David R. Adler --
The Bluiett Baritone Saxophone Group strikes again. Four baritone saxes make for quite a wall of low-register sound, and every quartet member but Bluiett -- Patience Higgins, James Carter, and Alex Harding -- doubles on bass clarinet. In Carter's case, make that contra-bass clarinet, an instrument that can cause the room to shake. Since the horns have the bass function covered, all that's needed are drums; hence the presence of trapsman Lee Person and percussionist Kahil El'Zabar. This is a challenging listen, even if it starts with a playful, lushly harmonized "My Girl," the Motown hit. "Humpback," the first of five compositions by Coleridge Taylor Perkinson, immediately follows, its dark, smeary rubato harmonies and ultra-low-end textures evoking the murky world of the whale. Bluiett's contributions ("Blueblack/Prelude to a Scream," "Juxtaposition," "Sasa -- The Here and Now") tend to be more cacophonous, less structured; other tracks evoke a bright dance aesthetic ("Zippin'," "LG's Place"), touching upon what the late Lester Bowie liked to call "great black music." Taylor Perkinson's double tribute "Lamentation for JJ/Ballad for Babs" and his thoughtful "Angles" showcase the more elegant side of the quadruple-baritone configuration.
 
Состав
Hamiet Bluiett - Baritone Sax
James Carter - Contrabass Clarinet,
Kahil El'Zabar - African Drums, Percussion, Vocals
Alex Harding - Bass Clarinet, Baritone Sax
Patience Higgins - Bass Clarinet, Baritone Sax
Lee Person - Trap Kit
По всем вопросам пишите личное сообщение пользователю M0p94ok.
10:26
442
Нет комментариев. Ваш будет первым!