Вы используете незарегистрированную версию компонента "Вкладки"!

Поиск

(Avant-Garde Jazz) [CD] Fire! (Mats Gustafsson, Johan Berthling, Andreas Werliin, Oren Ambarchi, Leo Svensson Sander) - She Sleeps, She Sleeps - 2016, FLAC (tracks+.cue), lossless

(Avant-Garde Jazz) [CD] Fire! (Mats Gustafsson, Johan Berthling, Andreas Werliin, Oren Ambarchi, Leo Svensson Sander) - She Sleeps, She Sleeps - 2016, FLAC (tracks+.cue), lossless
Треклист:
Fire! / She Sleeps, She Sleeps
Жанр: Avant-Garde Jazz
Носитель: CD
Год издания: 2016
Издатель (лейбл): RUNE GRAMMOFON
Номер по каталогу: RCD2178
Аудиокодек: FLAC (*.flac)
Тип рипа: tracks+.cue
Битрейт аудио: lossless
Продолжительность: 44:04
Источник (релизер): human_fly
Наличие сканов в содержимом раздачи: нет
Треклист:
1.She Owned His Voice 7:34
2.She Sleeps, She Sleeps 13:59
3.She Bid A Meaningless Farewell 4:04
4.She Penetrates The Distant Silence, Slowly 18:30
 
Лог создания рипа
X Lossless Decoder version 20151214 (149.1)
XLD extraction logfile from 2015-12-16 08:43:35 +0100
Fire! / She Sleeps, She Sleeps
Used drive : MATSHITA DVD-R UJ-868 (revision KB19)
Media type : Pressed CD
Ripper mode : XLD Secure Ripper
Disable audio cache : OK for the drive with a cache less than 1375KiB
Make use of C2 pointers : NO
Read offset correction : 102
Max retry count : 20
Gap status : Analyzed, Appended (except HTOA)
TOC of the extracted CD
Track | Start | Length | Start sector | End sector
---------------------------------------------------------
1 | 00:00:38 | 07:34:60 | 38 | 34147
2 | 07:35:23 | 13:59:62 | 34148 | 97134
3 | 21:35:10 | 04:04:12 | 97135 | 115446
4 | 25:39:22 | 18:30:41 | 115447 | 198737
AccurateRip Summary
Disc not found in AccurateRip DB.
All Tracks
Album gain : -5.33 dB
Peak : 0.964355
Statistics
Read error : 0
Jitter error (maybe fixed) : 0
Retry sector count : 0
Damaged sector count : 0
Track 01
Filename : /Users/Olle/Music/iTunes/iTunes Media/Fire! - She Sleeps, She Sleeps (2016) [FLAC]/01 She Owned His Voice.flac
/Users/Olle/Music/iTunes/iTunes Media/Fire! - She Sleeps, She Sleeps (2016) [V0]/01 She Owned His Voice.mp3
/Users/Olle/Music/iTunes/iTunes Media/Fire! - She Sleeps, She Sleeps (2016) [320]/01 She Owned His Voice.mp3
Pre-gap length : 00:02:38
Track gain : -5.78 dB
Peak : 0.964355
CRC32 hash (test run) : C9D9D2D7
CRC32 hash : C9D9D2D7
CRC32 hash (skip zero) : D222C0D3
AccurateRip v1 signature : 01F55E03
AccurateRip v2 signature : 74841530
->Track not present in AccurateRip database.
Statistics
Read error : 0
Jitter error (maybe fixed) : 0
Retry sector count : 0
Damaged sector count : 0
Track 02
Filename : /Users/Olle/Music/iTunes/iTunes Media/Fire! - She Sleeps, She Sleeps (2016) [FLAC]/02 She Sleeps, She Sleeps.flac
/Users/Olle/Music/iTunes/iTunes Media/Fire! - She Sleeps, She Sleeps (2016) [V0]/02 She Sleeps, She Sleeps.mp3
/Users/Olle/Music/iTunes/iTunes Media/Fire! - She Sleeps, She Sleeps (2016) [320]/02 She Sleeps, She Sleeps.mp3
Track gain : -5.25 dB
Peak : 0.964355
CRC32 hash (test run) : A1111082
CRC32 hash : A1111082
CRC32 hash (skip zero) : 409E6F9C
AccurateRip v1 signature : 2DD8E67E
AccurateRip v2 signature : F65F8377
->Track not present in AccurateRip database.
Statistics
Read error : 0
Jitter error (maybe fixed) : 0
Retry sector count : 0
Damaged sector count : 0
Track 03
Filename : /Users/Olle/Music/iTunes/iTunes Media/Fire! - She Sleeps, She Sleeps (2016) [FLAC]/03 She Bid A Meaningless Farewell.flac
/Users/Olle/Music/iTunes/iTunes Media/Fire! - She Sleeps, She Sleeps (2016) [V0]/03 She Bid A Meaningless Farewell.mp3
/Users/Olle/Music/iTunes/iTunes Media/Fire! - She Sleeps, She Sleeps (2016) [320]/03 She Bid A Meaningless Farewell.mp3
Track gain : -5.47 dB
Peak : 0.964355
CRC32 hash (test run) : 09E17D83
CRC32 hash : 09E17D83
CRC32 hash (skip zero) : 8E8F160C
AccurateRip v1 signature : 3B2389C2
AccurateRip v2 signature : BA99C264
->Track not present in AccurateRip database.
Statistics
Read error : 0
Jitter error (maybe fixed) : 0
Retry sector count : 0
Damaged sector count : 0
Track 04
Filename : /Users/Olle/Music/iTunes/iTunes Media/Fire! - She Sleeps, She Sleeps (2016) [FLAC]/04 She Penetrates The Distant Silence, Slowly.flac
/Users/Olle/Music/iTunes/iTunes Media/Fire! - She Sleeps, She Sleeps (2016) [V0]/04 She Penetrates The Distant Silence, Slowly.mp3
/Users/Olle/Music/iTunes/iTunes Media/Fire! - She Sleeps, She Sleeps (2016) [320]/04 She Penetrates The Distant Silence, Slowly.mp3
Track gain : -4.79 dB
Peak : 0.964355
CRC32 hash (test run) : 01D5F4CE
CRC32 hash : 01D5F4CE
CRC32 hash (skip zero) : DA17DD61
AccurateRip v1 signature : E643B953
AccurateRip v2 signature : 60D16F29
->Track not present in AccurateRip database.
Statistics
Read error : 0
Jitter error (maybe fixed) : 0
Retry sector count : 0
Damaged sector count : 0
No errors occurred
End of status report
-----BEGIN XLD SIGNATURE-----
es1anDdIvHxl.lYP1vYMZ9ayMmSQxLlrXAOMAMtUW3S95HJ1RZvpOwo6EBq_MA4XDKobCpyG4gnl65LxKXRiHcq4gtp5RNXMKgRw_Z0
-----END XLD SIGNATURE-----
 
Содержание индексной карты (.CUE)
TITLE "She Sleeps, She Sleeps"
PERFORMER "Fire!"
REM GENRE "Jazz"
REM DATE "2016"
REM DISCID 300A5904
REM REPLAYGAIN_ALBUM_GAIN -5.33 dB
REM REPLAYGAIN_ALBUM_PEAK 0.964355
FILE "01 She Owned His Voice.flac" WAVE
TRACK 01 AUDIO
TITLE "She Owned His Voice"
ISRC NOFGR1678010
REM REPLAYGAIN_TRACK_GAIN -5.78 dB
REM REPLAYGAIN_TRACK_PEAK 0.964355
PREGAP 00:00:38
INDEX 01 00:00:00
FILE "02 She Sleeps, She Sleeps.flac" WAVE
TRACK 02 AUDIO
TITLE "She Sleeps, She Sleeps"
ISRC NOFGR1678020
REM REPLAYGAIN_TRACK_GAIN -5.25 dB
REM REPLAYGAIN_TRACK_PEAK 0.964355
INDEX 01 00:00:00
FILE "03 She Bid A Meaningless Farewell.flac" WAVE
TRACK 03 AUDIO
TITLE "She Bid A Meaningless Farewell"
ISRC NOFGR1678030
REM REPLAYGAIN_TRACK_GAIN -5.47 dB
REM REPLAYGAIN_TRACK_PEAK 0.964355
INDEX 01 00:00:00
FILE "04 She Penetrates The Distant Silence, Slowly.flac" WAVE
TRACK 04 AUDIO
TITLE "She Penetrates The Distant Silence, Slowly"
ISRC NOFGR1678040
REM REPLAYGAIN_TRACK_GAIN -4.79 dB
REM REPLAYGAIN_TRACK_PEAK 0.964355
INDEX 01 00:00:00
 
Состав
Mats Gustafsson: tenor, baritone and bass saxophones
Johan Berthling: double bass
Andreas Werliin: drums and lap steel guitar
Oren Ambarchi: guitar
Leo Svensson Sander: cello
По всем вопросам пишите личное сообщение пользователю M0p94ok.
18:17
157
Нет комментариев. Ваш будет первым!