Вы используете незарегистрированную версию компонента "Вкладки"!

Поиск

(Avant-Garde Jazz, British Jazz, Free Improvisation) [CD] Paul Rogers Quartet (w/ Paul Dunmall, Tony Levin, Sophia Domancich) - Time Of Brightness - 1997, FLAC (tracks+.cue), lossless

Треклист:
Paul Rogers Quartet / Time Of Brightness
Жанр: Avant-Garde Jazz, British Jazz, Free Improvisation
Носитель: CD
Страна-производитель диска: UK
Год издания: 1997
Издатель (лейбл): Rare Music
Номер по каталогу: RM 027
Страна исполнителя (группы): UK
Аудиокодек: FLAC (*.flac)
Тип рипа: tracks+.cue
Битрейт аудио: lossless
Продолжительность: 59:10
Источник (релизер): свой фирменный диск
Наличие сканов в содержимом раздачи:
Треклист:
Bear Moon
1. I 10:03
2. II 8:13
3. III 12:31
4. IV 11:44
Time Of Brightness
5. I 4:38
6. II 11:44
 
Лог создания рипа
Exact Audio Copy V1.0 beta 3 from 29. August 2011
EAC extraction logfile from 24. July 2014, 13:21
Paul Rogers Quartet / Time Of Brightness
Used drive : PIONEER DVD-RW DVR-115D Adapter: 0 ID: 0
Read mode : Secure
Utilize accurate stream : Yes
Defeat audio cache : Yes
Make use of C2 pointers : No
Read offset correction : 48
Overread into Lead-In and Lead-Out : No
Fill up missing offset samples with silence : Yes
Delete leading and trailing silent blocks : No
Null samples used in CRC calculations : Yes
Used interface : Installed external ASPI interface
Gap handling : Appended to previous track
Used output format : User Defined Encoder
Selected bitrate : 896 kBit/s
Quality : High
Add ID3 tag : No
Command line compressor : C:\Program Files\Exact Audio Copy\FLAC\FLAC.EXE
Additional command line options : -6 -V -T "ARTIST=%artist%" -T "TITLE=%title%" -T "ALBUM=%albumtitle%" -T "DATE=%year%" -T "TRACKNUMBER=%tracknr%" -T "GENRE=%genre%" -T "COMMENT=%comment%" -T "BAND=%albuminterpret%" -T "COMPOSER=%composer%" %haslyrics%--tag-from-file=LYRICS="%lyricsfile%"%haslyrics% -T "DISCNUMBER=%cdnumber%" -T "TOTALDISCS=%totalcds%" -T "TOTALTRACKS=%numtracks%" %hascover%--picture="%coverfile%"%hascover% %source% -o %dest%
TOC of the extracted CD
Track | Start | Length | Start sector | End sector
---------------------------------------------------------
1 | 0:00.00 | 10:03.01 | 0 | 45225
2 | 10:03.01 | 8:13.35 | 45226 | 82235
3 | 18:16.36 | 12:31.12 | 82236 | 138572
4 | 30:47.48 | 11:43.36 | 138573 | 191333
5 | 42:31.09 | 4:38.29 | 191334 | 212212
6 | 47:09.38 | 12:00.32 | 212213 | 266244
Track 1
Filename D:\zzz\01 - Bear Moon I.wav
Pre-gap length 0:00:02.00
Peak level 100.0 %
Extraction speed 5.1 X
Track quality 100.0 %
Test CRC 8E730009
Copy CRC 8E730009
Accurately ripped (confidence 1) [64D40C27] (AR v1)
Copy OK
Track 2
Filename D:\zzz\02 - Bear Moon II.wav
Peak level 71.6 %
Extraction speed 6.0 X
Track quality 100.0 %
Test CRC CE03EF50
Copy CRC CE03EF50
Accurately ripped (confidence 1) [73291B81] (AR v1)
Copy OK
Track 3
Filename D:\zzz\03 - Bear Moon III.wav
Peak level 100.0 %
Extraction speed 7.0 X
Track quality 100.0 %
Test CRC 49733975
Copy CRC 49733975
Accurately ripped (confidence 1) [2F799EA2] (AR v1)
Copy OK
Track 4
Filename D:\zzz\04 - Bear Moon IV.wav
Peak level 100.0 %
Extraction speed 7.4 X
Track quality 99.9 %
Test CRC 246FB5E9
Copy CRC 246FB5E9
Accurately ripped (confidence 1) [C5AFAA93] (AR v1)
Copy OK
Track 5
Filename D:\zzz\05 - Time Of Brightness I.wav
Peak level 100.0 %
Extraction speed 7.7 X
Track quality 100.0 %
Test CRC 42B035F0
Copy CRC 42B035F0
Accurately ripped (confidence 1) [3F98CFEC] (AR v1)
Copy OK
Track 6
Filename D:\zzz\06 - Time Of Brightness II.wav
Peak level 100.0 %
Extraction speed 8.4 X
Track quality 99.9 %
Test CRC D1352CA5
Copy CRC D1352CA5
Accurately ripped (confidence 1) [B25225B2] (AR v1)
Copy OK
All tracks accurately ripped
No errors occurred
End of status report
==== Log checksum F583DEF0DC4064D567BCC5A39F75DED465B2D86257E027E6E52E79027ECCD3D0 ====
 
Содержание индексной карты (.CUE)
REM GENRE "Free Jazz"
REM DATE 1997
REM DISCID 520DDD06
REM COMMENT "ExactAudioCopy v1.0b3"
PERFORMER "Paul Rogers Quartet"
TITLE "Time Of Brightness"
FILE "01 - Bear Moon I.wav" WAVE
TRACK 01 AUDIO
TITLE "Bear Moon I"
PERFORMER "Paul Rogers Quartet"
INDEX 01 00:00:00
FILE "02 - Bear Moon II.wav" WAVE
TRACK 02 AUDIO
TITLE "Bear Moon II"
PERFORMER "Paul Rogers Quartet"
INDEX 01 00:00:00
FILE "03 - Bear Moon III.wav" WAVE
TRACK 03 AUDIO
TITLE "Bear Moon III"
PERFORMER "Paul Rogers Quartet"
INDEX 01 00:00:00
FILE "04 - Bear Moon IV.wav" WAVE
TRACK 04 AUDIO
TITLE "Bear Moon IV"
PERFORMER "Paul Rogers Quartet"
INDEX 01 00:00:00
FILE "05 - Time Of Brightness I.wav" WAVE
TRACK 05 AUDIO
TITLE "Time Of Brightness I"
PERFORMER "Paul Rogers Quartet"
INDEX 01 00:00:00
FILE "06 - Time Of Brightness II.wav" WAVE
TRACK 06 AUDIO
TITLE "Time Of Brightness II"
PERFORMER "Paul Rogers Quartet"
INDEX 01 00:00:00
 
Лог проверки качества
d:\>d:\aucdtect -d/-m0 d:\zzz\*.wav
auCDtect: CD records authenticity detector, version 0.8.2
Copyright (c) 2004 Oleg Berngardt. All rights reserved.
Copyright (c) 2004 Alexander Djourik. All rights reserved.
------------------------------------------------------------
Processing file: [01. Bear Moon I.wav]
------------------------------------------------------------
This track looks like CDDA with probability 100%
------------------------------------------------------------
Processing file: [02. Bear Moon II.wav]
------------------------------------------------------------
This track looks like CDDA with probability 99%
------------------------------------------------------------
Processing file: [03. Bear Moon III.wav]
------------------------------------------------------------
This track looks like CDDA with probability 100%
------------------------------------------------------------
Processing file: [04. Bear Moon IV.wav]
------------------------------------------------------------
This track looks like CDDA with probability 99%
------------------------------------------------------------
Processing file: [05. Time Of Brightness I.wav]
------------------------------------------------------------
This track looks like CDDA with probability 100%
------------------------------------------------------------
Processing file: [06. Time Of Brightness II.wav]
------------------------------------------------------------
This track looks like CDDA with probability 100%
------------------------------------------------------------
Final Conclusion:
------------------------------------------------------------
These tracks looks like CDDA with probability 100%
Доп. информация:
 
Album Info & AMG Review
All compositions by Paul Rogers
Produced by GIMINI MUSIC, 42 Rue de la Republique, 94430 Chennevieres/Marne, France
Recorded at "Studio de Chennevieres" by Gerard Lhomme on 12th & 13th June 1997 direct to two-track
Wood engravings: Paul Dunmall
Photo of Paul Rogers: Anita Cochrane
Artwork: Paul Medley
Bassist Paul Rogers is best-known as a valued sideman, notably with the free improvising ensemble Mujician. Here, he leads his own quartet, including two of his Mujician partners in performances of two of his own suites. The works are loosely structured with recognizable heads used as platforms for freewheeling improvisations. By thus reining in his players slightly, Rogers actually establishes a greater sense of tension and energy than is often achieved by "freer" bands. The other notable difference is the appearance of French pianist Sophia Domancich, whose lush and almost romantic approach serves as a wonderful foil for the orgiastic bellowing of saxophonist Paul Dunmall. She's an under-recognized musician who gets a real opportunity to shine here, especially as Rogers sets up various combinations of instrumentalists rather than adhering to any artificial theme-solos-theme formula. Rogers himself is an astonishing bassist who tends to launch himself into his playing with an unusual mix of ferocity and tact, never indulging in jazz clichés, always more interested in making a group contribution à la Barry Guy. His pieces range from quick lines with roots in bop to lovely, somber dirges that unexpectedly explode into emotional outbursts. Time of Brightness is one of the outstanding British free jazz releases of the '90s, one that fans of bands led by musicians like Keith Tippett or Elton Dean will greatly enjoy.
 
Состав
Paul Dunmall: alto, tenor saxophones
Sophia Domancich: piano
Tony Levin: drums
Paul Rogers: five-string double bass
По всем вопросам пишите личное сообщение пользователю M0p94ok.
04:51
154
Нет комментариев. Ваш будет первым!