Вы используете незарегистрированную версию компонента "Вкладки"!

Поиск

(Avant-Garde Jazz) Bob James Trio - Explosions (1965) - 2008, FLAC (tracks+.cue), lossless

(Avant-Garde Jazz) Bob James Trio - Explosions (1965) - 2008, FLAC (tracks+.cue), lossless
Треклист:
•Bob James Trio - Explosions (1965)•
Жанр: Avant-Garde Jazz
Страна-производитель диска: USA
Год издания диска: 2008
Издатель (лейбл): ESP
Номер по каталогу: 1009
Аудиокодек: FLAC (*.flac)
Тип рипа: tracks+.cue
Битрейт аудио: lossless
Продолжительность: 00:34:58
Источник (релизер): tiburon
Наличие сканов в содержимом раздачи: да
Треклист:
01. Peasant Boy (Bob James and Gordon Mumma) 8:35
02. Untitled Mixes (Bob Ashley and Bob James) 5:19
03. Explosions (Bob James) 5:45
04. And On (Barre Phillips) 8:56
05. Wolfman (Bob Ashley and Bob James) 6:08
Personnel:Bob James - piano
Barre Phillips - bass
Robert Pozar - drums
 
Лог создания рипа
Exact Audio Copy V0.99 prebeta 4 from 23. January 2008
EAC extraction logfile from 25. May 2009, 14:32
Bob James / Explosions
Used drive : PLEXTOR CD-R PREMIUM2 Adapter: 1 ID: 1
Read mode : Secure
Utilize accurate stream : Yes
Defeat audio cache : Yes
Make use of C2 pointers : No
Read offset correction : 30
Overread into Lead-In and Lead-Out : No
Fill up missing offset samples with silence : Yes
Delete leading and trailing silent blocks : No
Null samples used in CRC calculations : Yes
Used interface : Installed external ASPI interface
Gap handling : Appended to previous track
Used output format : User Defined Encoder
Selected bitrate : 32 kBit/s
Quality : High
Add ID3 tag : No
Command line compressor : C:\Programmi\FLAC\flac.exe
Additional command line options : -8 -V -T "ARTIST=%a" -T "TITLE=%t" -T "ALBUM=%g" -T "DATE=%y" -T "TRACKNUMBER=%n" -T "GENRE=%m" -T "COMMENT=EAC FLAC -8" %s
TOC of the extracted CD
Track | Start | Length | Start sector | End sector
---------------------------------------------------------
1 | 0:00.00 | 8:34.51 | 0 | 38600
2 | 8:34.51 | 5:18.40 | 38601 | 62490
3 | 13:53.16 | 5:44.65 | 62491 | 88355
4 | 19:38.06 | 8:55.67 | 88356 | 128547
5 | 28:33.73 | 6:07.73 | 128548 | 156145
Track 1
Filename D:\My Rip\01 - Peasant Boy.wav
Pre-gap length 0:00:02.00
Peak level 99.5 %
Track quality 99.9 %
Test CRC 680796A0
Copy CRC 680796A0
Accurately ripped (confidence 1) [3904D17E]
Copy OK
Track 2
Filename D:\My Rip\02 - Untitled Mixes.wav
Peak level 99.5 %
Track quality 100.0 %
Test CRC F53D1B2E
Copy CRC F53D1B2E
Accurately ripped (confidence 1) [F7BED6E3]
Copy OK
Track 3
Filename D:\My Rip\03 - Explosions.wav
Peak level 99.4 %
Track quality 100.0 %
Test CRC 7FDE5C80
Copy CRC 7FDE5C80
Accurately ripped (confidence 1) [2D3E3547]
Copy OK
Track 4
Filename D:\My Rip\04 - An On.wav
Peak level 99.4 %
Track quality 100.0 %
Test CRC 38C04DD3
Copy CRC 38C04DD3
Accurately ripped (confidence 1) [34F59BD8]
Copy OK
Track 5
Filename D:\My Rip\05 - Wolfman.wav
Peak level 99.5 %
Track quality 100.0 %
Test CRC 4FAADABF
Copy CRC 4FAADABF
Accurately ripped (confidence 1) [6107F5EF]
Copy OK
All tracks accurately ripped
No errors occurred
End of status report
 
Содержание индексной карты (.CUE)
REM GENRE Jazz
REM DATE 1965
REM DISCID 36082105
REM COMMENT "ExactAudioCopy v0.99pb4"
PERFORMER "Bob James"
TITLE "Explosions"
FILE "01 - Peasant Boy.flac" WAVE
TRACK 01 AUDIO
TITLE "Peasant Boy"
PERFORMER "Bob James"
INDEX 01 00:00:00
FILE "02 - Untitled Mixes.flac" WAVE
TRACK 02 AUDIO
TITLE "Untitled Mixes"
PERFORMER "Bob James"
INDEX 01 00:00:00
FILE "03 - Explosions.flac" WAVE
TRACK 03 AUDIO
TITLE "Explosions"
PERFORMER "Bob James"
INDEX 01 00:00:00
FILE "04 - An On.flac" WAVE
TRACK 04 AUDIO
TITLE "An On"
PERFORMER "Bob James"
INDEX 01 00:00:00
FILE "05 - Wolfman.flac" WAVE
TRACK 05 AUDIO
TITLE "Wolfman"
PERFORMER "Bob James"
INDEX 01 00:00:00
Any questions -> support@pro-jazz.com. По всем вопросам пишите -> support@pro-jazz.com
21:42
335
Нет комментариев. Ваш будет первым!