Поиск

(Avant-Garde Jazz) Baikida Carroll - Marionettes on a High Wire - 2001, FLAC (image + .cue), lossless

Треклист:
Baikida Carroll - Marionettes on a High Wire
Страна: USA
Жанр: Avant-Garde Jazz
Год выпуска: 2001
Формат: FLAC (image + .cue)
Битрейт аудио: lossless
Трэклист:
1. Ebullient Secrets (5:00)
2. Griot’s Last Dance (7:29) for Don Cherry
3. Marionettes On a High Wire (8:08)
4. Miss Julie (9:06) The main theme from the play by August Strindberg
5. Our Say (5:32) From the 1995 Broadway play Having Our Say by Emily Mann
6. A Thrill A Minute (6:36)
7. Velma (7:21) for Velma Porter
8. Flamboye (5:44) for Julius Hemphill
9. Down Under (5:04)
10. Cab (1:54) from Having Our Say
 
Отчет ЕАС
Exact Audio Copy V0.99 prebeta 5 from 4. May 2009
Отчёт EAC об извлечении, выполненном 28. декабря 2010, 21:02
Baikida Carroll / Marionettes on a High Wire
Дисковод: Optiarc DVD RW AD-7191S Adapter: 0 ID: 1
Режим чтения : Достоверность
Использование точного потока : Да
Отключение кэша аудио : Да
Использование указателей C2 : Нет
Коррекция смещения при чтении : 6
Способность читать области Lead-in и Lead-out : Нет
Заполнение пропущенных сэмплов тишиной : Да
Удаление блоков с тишиной в начале и конце : Нет
При вычислениях CRC использовались нулевые сэмплы : Да
Интерфейс : Встроенный Win32-интерфейс для Win NT/2000
Выходной формат : Пользовательский кодировщик
Выбранный битрейт : 768 kBit/s
Качество : Высокий
Добавление ID3-тэга : Нет
Утилита сжатия : C:\Program Files\Exact Audio Copy\FLAC\FLAC.EXE
Дополнительные параметры : -6 -V -T "ARTIST=%a" -T "TITLE=%t" -T "ALBUM=%g" -T "DATE=%y" -T "TRACKNUMBER=%n" -T "GENRE=%m" -T "COMMENT=%e" %s -o %d
TOC извлечённого CD
Трек | Старт | Длительность | Начальный сектор | Конечный сектор
---------------------------------------------------------------------
1 | 0:00.00 | 5:01.15 | 0 | 22589
2 | 5:01.15 | 7:28.61 | 22590 | 56250
3 | 12:30.01 | 8:11.10 | 56251 | 93085
4 | 20:41.11 | 9:08.02 | 93086 | 134187
5 | 29:49.13 | 5:34.24 | 134188 | 159261
6 | 35:23.37 | 6:39.53 | 159262 | 189239
7 | 42:03.15 | 7:24.09 | 189240 | 222548
8 | 49:27.24 | 5:46.14 | 222549 | 248512
9 | 55:13.38 | 5:06.73 | 248513 | 271535
10 | 60:20.36 | 1:54.69 | 271536 | 280154
Характеристики диапазона извлечения и сообщения об ошибках
Выбранный диапазон
Имя файла E:\MUSIC\Baikida Carroll - 2001 - Marionettes on a High Wire\Baikida Carroll - Marionettes on a High Wire.wav
Пиковый уровень 99.2 %
Качество диапазона 99.9 %
CRC копии 68E14ADD
Копирование... OK
Ошибок не произошло
AccurateRip: сводка
Трек 1 точность не определена (достоверность 4) [8030F3B3], AccurateRip вернул [B492CA5B]
Трек 2 точность не определена (достоверность 4) [A5D7AEB6], AccurateRip вернул [89753B59]
Трек 3 точность не определена (достоверность 4) [B1642FCD], AccurateRip вернул [63D24968]
Трек 4 точность не определена (достоверность 4) [83B159CE], AccurateRip вернул [9FB992CC]
Трек 5 точность не определена (достоверность 4) [E64C3BA0], AccurateRip вернул [EEDBEBD8]
Трек 6 точность не определена (достоверность 4) [30F4CDFB], AccurateRip вернул [879673F9]
Трек 7 точность не определена (достоверность 4) [A868FF46], AccurateRip вернул [0BC82C7C]
Трек 8 точность не определена (достоверность 4) [208C1F09], AccurateRip вернул [6E1A72A1]
Трек 9 точность не определена (достоверность 4) [9184B58C], AccurateRip вернул [7CBDE2AA]
Трек 10 точность не определена (достоверность 4) [AB4B558C], AccurateRip вернул [E1CE746A]
Ни один трек не прошёл проверки на точность
В вашей базе может быть иной вариант штамповки диска
Конец отчёта
Доп. информация:
Состав:
Baikida Carroll, trumpet
Erica Lindsay, tenor saxophone
Adegoke Steve Colson, piano
Michael Formanek, bass
Pheeroan akLaff, drums
Recorded 14-15 September 2000 at Systems Two, Brooklyn NY
Recording engineer: Jon Rosenberg
Produced by Baikida Carroll and Frank Tafuri
Executive Producer: Frank Tafuri
Рип с CD-R. Сканов не имею.
Приватный:
Нет (DHT включён)
Размер:
364.05 Мб (381,733,798 байт) » файлов: 4
Участники:
0 раздают, 0 качают (0 участников всего)
Внешние участники:
2 раздают, 1 качают (3 участников всего) [ Обновить ]
Есть вопросы - пишите личное сообщение пользователю M0p94ok.
23:24
75
Нет комментариев. Ваш будет первым!