Вы используете незарегистрированную версию компонента "Вкладки"!

Поиск

(Avant-Garde Jazz) Art Ensemble Of Chicago - Full Force - 1980, FLAC (image+.cue), lossless

(Avant-Garde Jazz) Art Ensemble Of Chicago - Full Force - 1980, FLAC (image+.cue), lossless
Треклист:
•Art Ensemble Of Chicago - Full Force•
Жанр: Avant-Garde Jazz
Год издания диска: 1980
Издатель (лейбл): ECM
Номер по каталогу: 1167
Аудиокодек: FLAC (*.flac)
Тип рипа: image+.cue
Битрейт аудио: lossless
Продолжительность: 00:42:28
Источник (релизер): Рип с диска.
Наличие сканов в содержимом раздачи: да
Треклист:
01. Magg Zelma 19:50
02. Carefree 0:46
03. Charlie M 9:17
04. Ol' Time Southside Street Dance 5:11
05. Full Force 7:24
Personnel:
Lester Bowie - tp
Joseph Jarman - ss, as, ts, bars, Bs, Bcl, basson, fl, piccolo, celeste, gongs, congas, whistle
Roscoe Mitchell - ss, as, ts, bars, Bs, fl, piccolo, gongs, congs
Malachi Favors Maghostus - bass, perc., melodica, voc
Famoudou Don Moye - dr, bells, bikehorns, congas, tympani, bongos, chimes, gongs, shell, whistles, wood blocks, cow bells.
 
Лог создания рипа
Exact Audio Copy V1.0 beta 3 from 29. August 2011
Отчёт EAC об извлечении, выполненном 1. февраля 2012, 0:02
Art Ensemble of Chicago / Full Force
Дисковод: TSSTcorpCDDVDW SH-S223C Adapter: 5 ID: 0
Режим чтения : Достоверность
Использование точного потока : Да
Отключение кэша аудио : Да
Использование указателей C2 : Нет
Коррекция смещения при чтении : 697
Способность читать области Lead-in и Lead-out : Нет
Заполнение пропущенных сэмплов тишиной : Да
Удаление блоков с тишиной в начале и конце : Нет
При вычислениях CRC использовались нулевые сэмплы : Да
Интерфейс : Установленный внешний ASPI-интерфейс
Выходной формат : Пользовательский кодировщик
Выбранный битрейт : 128 kBit/s
Качество : Высокий
Добавление ID3-тега : Нет
Утилита сжатия : C:\Program Files\Exact Audio Copy\Flac\flac.exe
Дополнительные параметры : -V -8 -T "Genre=%genre%" -T "Artist=%artist%" -T "Title=%title%" -T "Album=%albumtitle%" -T "Date=%year%" -T "Tracknumber=%tracknr%" -T "Comment=%comment%" %source%
TOC извлечённого CD
Трек | Старт | Длительность | Начальный сектор | Конечный сектор
---------------------------------------------------------------------
1 | 0:00.33 | 19:50.42 | 33 | 89324
2 | 19:51.00 | 0:50.58 | 89325 | 93132
3 | 20:41.58 | 9:18.15 | 93133 | 134997
4 | 29:59.73 | 5:12.30 | 134998 | 158427
5 | 35:12.28 | 7:24.50 | 158428 | 191777
Характеристики диапазона извлечения и сообщения об ошибках
Выбранный диапазон
Имя файла C:\Шахматы\1980.Art Ensemble Of Chicago - Full Force\Art Ensemble of Chicago - Full Force.wav
Пиковый уровень 93.0 %
Скорость извлечения 3.1 X
Качество диапазона 99.9 %
CRC теста 29619D3D
CRC копии 29619D3D
Копирование... OK
Ошибок не произошло
AccurateRip: сводка
Трек 1 : извлечено точно (доверие 2) [D8DD2EAB] (AR v1)
Трек 2 : извлечено точно (доверие 2) [7BF40134] (AR v1)
Трек 3 : извлечено точно (доверие 2) [DA97AF1F] (AR v1)
Трек 4 : извлечено точно (доверие 2) [4D117B2D] (AR v1)
Трек 5 : извлечено точно (доверие 2) [F9F627F2] (AR v1)
Все треки извлечены точно
Конец отчёта
==== Контрольная сумма отчёта 82BC7E3DB013F7A03C99B471D1BFCC676A4A650BED8131A6B06E10C7995E22D1 ====
 
Содержание индексной карты (.CUE)
REM GENRE Jazz
REM DATE 1980
REM DISCID 2C09FD05
REM COMMENT "ExactAudioCopy v1.0b3"
CATALOG 0042282919724
PERFORMER "Art Ensemble of Chicago"
TITLE "Full Force"
FILE "Art Ensemble of Chicago - Full Force.flac" WAVE
TRACK 01 AUDIO
TITLE "Magg Zelma"
PERFORMER "Art Ensemble of Chicago"
INDEX 00 00:00:00
INDEX 01 00:00:33
TRACK 02 AUDIO
TITLE "Care Free"
PERFORMER "Art Ensemble of Chicago"
INDEX 01 19:51:00
TRACK 03 AUDIO
TITLE "Charlie M"
PERFORMER "Art Ensemble of Chicago"
INDEX 00 20:37:25
INDEX 01 20:41:58
TRACK 04 AUDIO
TITLE "Old Time Southside Street Dance"
PERFORMER "Art Ensemble of Chicago"
INDEX 00 29:59:30
INDEX 01 29:59:73
TRACK 05 AUDIO
TITLE "Full Force"
PERFORMER "Art Ensemble of Chicago"
INDEX 00 35:11:48
INDEX 01 35:12:28
Any questions -> support@pro-jazz.com. По всем вопросам пишите -> support@pro-jazz.com
21:39
198
Нет комментариев. Ваш будет первым!