Вы используете незарегистрированную версию компонента "Вкладки"!

Поиск

(Avant-Garde Jazz) Aki Takase (Eugene Chadbourne, Nils Wogram, Rudi Mahall, Thomas Heberer, Paul Lovens) - Aki Takase Plays "Fats" Waller - 2004 [ENJA Records CD 9152-2], FLAC (tracks+.cue), lossless

(Avant-Garde Jazz) Aki Takase (Eugene Chadbourne, Nils Wogram, Rudi Mahall, Thomas Heberer, Paul Lovens) - Aki Takase Plays "Fats" Waller - 2004 [ENJA Records CD 9152-2], FLAC (tracks+.cue), lossless
Треклист:
Aki Takase - Aki Takase Plays "Fats" Waller
Жанр: Avant-Garde Jazz
Год издания: 2004
Издатель (лейбл): ENJA Records
Номер по каталогу: CD 9152-2
Аудиокодек: FLAC (*.flac)
Тип рипа: tracks+.cue
Битрейт аудио: lossless
Продолжительность: 00:49:58
Источник (релизер): what.cd / спасибо weareborg
Наличие сканов в содержимом раздачи: нет
Треклист:
1. Lookin' Good, but Feelin' Bad (Waller) (02:49)
2. Vipers Drag (Waller) (06:45)
3. Ain't misbehavin (Waller) (04:50)
4. Handful of Keys (Waller) (04:45)
5. Any Tune, but Fats Tune (A. Takase) (04:42)
6. Your Feet's Too Big (Ada Benson) (02:07)
7. Intermezzo 1 (Takase) (02:03)
8. Do You Know What it Means to Miss New Orleans (Alter) (03:32)
9. Intermezzo 2 (Takase) (01:03)
10. Hold Tight (Waller) (02:09)
11. Kuroneko Yamato (Takase) (03:00)
12. Intermezzo 3 (Takase) (00:53)
13. I Got a Feelin I'm Falling (Waller) (02:14)
14. Tintenfisch in Wien (Takase) (04:05)
15. Kauf Dir einen bunten Luftballon (Anton Profes) (04:24)
Доп. информация:
Musicians:
Aki Takase - piano, toypiano, arrangement
Eugene Chadbourne - vocal, banjo, guitar
Nils Wogram - trombone
Rudi Mahall - bassclarinet
Thomas Heberer - trumpet
Paul Lovens - drums
Recording date: 02-03, June, 2003 / Recording location: Studio Vagnsson Hamburg
Aki Takase Official Site
Aki Takase from Wikipedia, the free encyclopedia
Aki Takase - Aki Takase Plays Fats Waller allmusic.com
 
... photo ...

 
... review ...
What the world does not need is yet another slavish tribute to the great Fats Waller, one in which his original arrangements are re-created and his personal style respectfully reproduced. Aki Takase, being the slightly slantwise genius that she is, conceived of something very different for this project: a tribute album that would incorporate some of Waller's compositions alongside pieces by other New Orleans composers and original pieces by Takase herself -- some of which would allude slyly to the great man's sound, and others which would bring a completely different flavor to the mix. Her helpers include bass clarinetist Rudi Mahall, trombonist Nils Wogram, and the even more slantwise genius Eugene Chadbourne, who contributes vocals, banjo, and guitar. Familiar tunes like "Viper Rag" and "Handful of Keys" are given slightly twisted but delightful arrangements, and other period pieces like "Do You Know What It Means to Miss New Orleans" rub shoulders with Takase's own numbered intermezzi, which are often contemplative and harmonically spiky. The vocals tend to be a bit goofy, and some of the arrangements start out with long sections of skronky, atonal group improvisation. But the whole album hangs together surprisingly well and serves its purpose admirably: it celebrates the spirit of Waller's music without aping it thoughtlessly.
Rick Anderson ~ allmusic.com
 
Лог создания рипа
Exact Audio Copy V0.99 prebeta 4 from 23. January 2008
EAC extraction logfile from 23. September 2009, 18:45
Aki Takase / Aki Takase plays "Fats" Waller
Used drive : TSSTcorpDVD-ROM SH-D163A Adapter: 3 ID: 0
Read mode : Secure
Utilize accurate stream : Yes
Defeat audio cache : Yes
Make use of C2 pointers : No
Read offset correction : 6
Overread into Lead-In and Lead-Out : No
Fill up missing offset samples with silence : Yes
Delete leading and trailing silent blocks : No
Null samples used in CRC calculations : Yes
Used interface : Native Win32 interface for Win NT & 2000
Gap handling : Appended to previous track
Used output format : User Defined Encoder
Selected bitrate : 192 kBit/s
Quality : High
Add ID3 tag : No
Command line compressor : C:\Program Files\FLAC\flac.exe
Additional command line options : -V -8 -T "artist=%a" -T "title=%t" -T "album=%g" -T "date=%y" -T "tracknumber=%n" -T "genre=%m" %s
TOC of the extracted CD
Track | Start | Length | Start sector | End sector
---------------------------------------------------------
1 | 0:00.00 | 2:49.05 | 0 | 12679
2 | 2:49.05 | 6:45.40 | 12680 | 43094
3 | 9:34.45 | 4:50.72 | 43095 | 64916
4 | 14:25.42 | 4:45.48 | 64917 | 86339
5 | 19:11.15 | 4:42.51 | 86340 | 107540
6 | 23:53.66 | 2:07.20 | 107541 | 117085
7 | 26:01.11 | 2:03.69 | 117086 | 126379
8 | 28:05.05 | 3:32.51 | 126380 | 142330
9 | 31:37.56 | 1:03.04 | 142331 | 147059
10 | 32:40.60 | 2:09.44 | 147060 | 156778
11 | 34:50.29 | 3:00.44 | 156779 | 170322
12 | 37:50.73 | 0:53.12 | 170323 | 174309
13 | 38:44.10 | 2:14.65 | 174310 | 184424
14 | 40:59.00 | 4:05.03 | 184425 | 202802
15 | 45:04.03 | 4:24.54 | 202803 | 222656
Track 1
Filename D:\MP3\02_WaveCD\00_My_Uploads\Aki Takase - Aki Takase Plays Fats Waller FLAC\01 - Lookin' Good, but Feelin' Bad.wav
Pre-gap length 0:00:02.00
Peak level 100.0 %
Track quality 100.0 %
Test CRC 861636EA
Copy CRC 861636EA
Copy OK
Track 2
Filename D:\MP3\02_WaveCD\00_My_Uploads\Aki Takase - Aki Takase Plays Fats Waller FLAC\02 - Vipers Drag.wav
Peak level 100.0 %
Track quality 100.0 %
Test CRC 8BC69A22
Copy CRC 8BC69A22
Copy OK
Track 3
Filename D:\MP3\02_WaveCD\00_My_Uploads\Aki Takase - Aki Takase Plays Fats Waller FLAC\03 - Ain't Misbehavin'.wav
Peak level 92.3 %
Track quality 100.0 %
Test CRC 92859C62
Copy CRC 92859C62
Copy OK
Track 4
Filename D:\MP3\02_WaveCD\00_My_Uploads\Aki Takase - Aki Takase Plays Fats Waller FLAC\04 - Handful of Keys.wav
Peak level 97.1 %
Track quality 100.0 %
Test CRC 71F25678
Copy CRC 71F25678
Copy OK
Track 5
Filename D:\MP3\02_WaveCD\00_My_Uploads\Aki Takase - Aki Takase Plays Fats Waller FLAC\05 - Any Tune, but Fats Tune.wav
Peak level 100.0 %
Track quality 100.0 %
Test CRC E3885AD7
Copy CRC E3885AD7
Copy OK
Track 6
Filename D:\MP3\02_WaveCD\00_My_Uploads\Aki Takase - Aki Takase Plays Fats Waller FLAC\06 - Your Feet's Too Big.wav
Peak level 96.9 %
Track quality 100.0 %
Test CRC 03D7DDD8
Copy CRC 03D7DDD8
Copy OK
Track 7
Filename D:\MP3\02_WaveCD\00_My_Uploads\Aki Takase - Aki Takase Plays Fats Waller FLAC\07 - Intermezzo 1.wav
Peak level 91.4 %
Track quality 100.0 %
Test CRC A3813065
Copy CRC A3813065
Copy OK
Track 8
Filename D:\MP3\02_WaveCD\00_My_Uploads\Aki Takase - Aki Takase Plays Fats Waller FLAC\08 - Do You Know What it Means to Miss New Orleans.wav
Peak level 92.6 %
Track quality 100.0 %
Test CRC 859BBD7F
Copy CRC 859BBD7F
Copy OK
Track 9
Filename D:\MP3\02_WaveCD\00_My_Uploads\Aki Takase - Aki Takase Plays Fats Waller FLAC\09 - Intermezzo 2.wav
Peak level 64.3 %
Track quality 100.0 %
Test CRC 7E3947C7
Copy CRC 7E3947C7
Copy OK
Track 10
Filename D:\MP3\02_WaveCD\00_My_Uploads\Aki Takase - Aki Takase Plays Fats Waller FLAC\10 - Hold Tight.wav
Peak level 100.0 %
Track quality 100.0 %
Test CRC 9B72AA1A
Copy CRC 9B72AA1A
Copy OK
Track 11
Filename D:\MP3\02_WaveCD\00_My_Uploads\Aki Takase - Aki Takase Plays Fats Waller FLAC\11 - Kuroneko Yamato.wav
Peak level 100.0 %
Track quality 100.0 %
Test CRC 2A900640
Copy CRC 2A900640
Copy OK
Track 12
Filename D:\MP3\02_WaveCD\00_My_Uploads\Aki Takase - Aki Takase Plays Fats Waller FLAC\12 - Intermezzo 3.wav
Peak level 91.1 %
Track quality 100.0 %
Test CRC 6D2E25EA
Copy CRC 6D2E25EA
Copy OK
Track 13
Filename D:\MP3\02_WaveCD\00_My_Uploads\Aki Takase - Aki Takase Plays Fats Waller FLAC\13 - I Have Got a Feeling I'm Falling.wav
Peak level 97.3 %
Track quality 100.0 %
Test CRC BD31CAA0
Copy CRC BD31CAA0
Copy OK
Track 14
Filename D:\MP3\02_WaveCD\00_My_Uploads\Aki Takase - Aki Takase Plays Fats Waller FLAC\14 - Tintenfisch in Wien.wav
Peak level 92.4 %
Track quality 99.9 %
Test CRC CD6C0DBA
Copy CRC CD6C0DBA
Copy OK
Track 15
Filename D:\MP3\02_WaveCD\00_My_Uploads\Aki Takase - Aki Takase Plays Fats Waller FLAC\15 - Kauf Dir einen bunten Luftballon.wav
Peak level 100.0 %
Track quality 100.0 %
Test CRC 88CAD1C5
Copy CRC 88CAD1C5
Copy OK
No errors occurred
End of status report
 
Содержание индексной карты (.CUE)
REM GENRE Jazz
REM DATE 2004
REM DISCID DE0B980F
REM COMMENT "ExactAudioCopy v0.99pb4"
PERFORMER "Aki Takase"
TITLE "Aki Takase plays 'Fats' Waller"
FILE "01 - Lookin' Good, but Feelin' Bad.wav" WAVE
TRACK 01 AUDIO
TITLE "Lookin' Good, but Feelin' Bad"
PERFORMER "Aki Takase"
INDEX 01 00:00:00
FILE "02 - Vipers Drag.wav" WAVE
TRACK 02 AUDIO
TITLE "Vipers Drag"
PERFORMER "Aki Takase"
INDEX 01 00:00:00
FILE "03 - Ain't Misbehavin'.wav" WAVE
TRACK 03 AUDIO
TITLE "Ain't Misbehavin'"
PERFORMER "Aki Takase"
INDEX 01 00:00:00
FILE "04 - Handful of Keys.wav" WAVE
TRACK 04 AUDIO
TITLE "Handful of Keys"
PERFORMER "Aki Takase"
INDEX 01 00:00:00
FILE "05 - Any Tune, but Fats Tune.wav" WAVE
TRACK 05 AUDIO
TITLE "Any Tune, but Fats Tune"
PERFORMER "Aki Takase"
INDEX 01 00:00:00
FILE "06 - Your Feet's Too Big.wav" WAVE
TRACK 06 AUDIO
TITLE "Your Feet's Too Big"
PERFORMER "Aki Takase"
INDEX 01 00:00:00
FILE "07 - Intermezzo 1.wav" WAVE
TRACK 07 AUDIO
TITLE "Intermezzo 1"
PERFORMER "Aki Takase"
INDEX 01 00:00:00
FILE "08 - Do You Know What it Means to Miss New Orleans.wav" WAVE
TRACK 08 AUDIO
TITLE "Do You Know What it Means to Miss New Orleans"
PERFORMER "Aki Takase"
INDEX 01 00:00:00
FILE "09 - Intermezzo 2.wav" WAVE
TRACK 09 AUDIO
TITLE "Intermezzo 2"
PERFORMER "Aki Takase"
INDEX 01 00:00:00
FILE "10 - Hold Tight.wav" WAVE
TRACK 10 AUDIO
TITLE "Hold Tight"
PERFORMER "Aki Takase"
INDEX 01 00:00:00
FILE "11 - Kuroneko Yamato.wav" WAVE
TRACK 11 AUDIO
TITLE "Kuroneko Yamato"
PERFORMER "Aki Takase"
INDEX 01 00:00:00
FILE "12 - Intermezzo 3.wav" WAVE
TRACK 12 AUDIO
TITLE "Intermezzo 3"
PERFORMER "Aki Takase"
INDEX 01 00:00:00
FILE "13 - I Have Got a Feeling I'm Falling.wav" WAVE
TRACK 13 AUDIO
TITLE "I Have Got a Feeling I'm Falling"
PERFORMER "Aki Takase"
INDEX 01 00:00:00
FILE "14 - Tintenfisch in Wien.wav" WAVE
TRACK 14 AUDIO
TITLE "Tintenfisch in Wien"
PERFORMER "Aki Takase"
INDEX 01 00:00:00
FILE "15 - Kauf Dir einen bunten Luftballon.wav" WAVE
TRACK 15 AUDIO
TITLE "Kauf Dir einen bunten Luftballon"
PERFORMER "Aki Takase"
INDEX 01 00:00:00
 
auCDtect Task Manager
-----------------------
DON'T MODIFY THIS FILE
-----------------------
PERFORMER: auCDtect Task Manager, ver. 1.5.1RC6 build 1.5.1.7
Copyright (c) 2008-2010 y-soft. All rights reserved
http://y-soft.org
ANALYZER: auCDtect: CD records authenticity detector, version 0.8.2
Copyright (c) 2004 Oleg Berngardt. All rights reserved.
Copyright (c) 2004 Alexander Djourik. All rights reserved.
FILE: 15 Kauf Dir einen bunten Luftballon.flac
Size: 18977255 Hash: 7AEEB1F9F1C3014320C036DA87AF4254 Accuracy: -m0
Conclusion: CDDA 100%
Signature: 9BE7C2E7C4C0845A937089D914D03F9FF705BD40
FILE: 14 Tintenfisch in Wien.flac
Size: 15860700 Hash: 6A1D46A11F9EF8A97FD1B6E11DACF6FB Accuracy: -m0
Conclusion: CDDA 100%
Signature: D489A2AAA85F37FEC5257CA67BE89C297C5430FC
FILE: 13 I Have Got a Feeling I'm Falling.flac
Size: 10957234 Hash: 5CA465A2AA0DDD72F646A8E48297C4FB Accuracy: -m0
Conclusion: CDDA 100%
Signature: DEB7465DA884F33F015F57E5B1D9FD8D2E4C4637
FILE: 12 Intermezzo 3.flac
Size: 3089103 Hash: A576403910D9FD605F927C744B68BA88 Accuracy: -m0
Conclusion: CDDA 100%
Signature: 4993BB01AED461F4647FFA86E5698A0CD12F850D
FILE: 11 Kuroneko Yamato.flac
Size: 15770441 Hash: DFA6AC3B28A49E4169488DA8AFD3BE4F Accuracy: -m0
Conclusion: CDDA 100%
Signature: 6E918E03B840C9475B577D050F52C162DFB6A8DF
FILE: 10 Hold Tight.flac
Size: 13786159 Hash: 33EA67C017E86197B0BE66EE11196C9A Accuracy: -m0
Conclusion: CDDA 100%
Signature: 961ADFE452B49E1E94D29D7EA76131094A7AC5C6
FILE: 09 Intermezzo 2.flac
Size: 3521415 Hash: 2A62B8F398171DAD8C33A83F7AB468A6 Accuracy: -m0
Conclusion: CDDA 100%
Signature: A90C4E15C0ACBD57C30106AFDD987F4A4F6419E3
FILE: 08 Do You Know What it Means to Miss New Orleans.flac
Size: 14571171 Hash: 80E41CE15C46666082B036DF095C602B Accuracy: -m0
Conclusion: CDDA 100%
Signature: 3863566F72CD59C6035289581C862C123C666142
FILE: 07 Intermezzo 1.flac
Size: 8032328 Hash: 6F81AF2E297CFFFF9F03EF58CDFF2868 Accuracy: -m0
Conclusion: CDDA 100%
Signature: D913CA83956855D15EA040A9A4E74D4D7F8CC0EF
FILE: 06 Your Feet's Too Big.flac
Size: 11752377 Hash: EE80342CAB44E7DEE877BE641FEFD037 Accuracy: -m0
Conclusion: CDDA 100%
Signature: 6C4E2FB981A6BC66F2170074DD7674DE298C6E57
FILE: 05 Any Tune, but Fats Tune.flac
Size: 23544919 Hash: 61AF8AD4D039914432395D13B562477F Accuracy: -m0
Conclusion: CDDA 100%
Signature: 92FF605935AAF84F46CC965706299A4F6A9DB231
FILE: 04 Handful of Keys.flac
Size: 22624798 Hash: FAF0926BA84E933510748938D6365C36 Accuracy: -m0
Conclusion: CDDA 100%
Signature: 888A45DD668FA4D565A99E7564858434CBB69034
FILE: 03 Ain't Misbehavin'.flac
Size: 18229359 Hash: 824F3E42861C78E0E50AAAA2B1D84911 Accuracy: -m0
Conclusion: CDDA 99%
Signature: 9EC5C79B77869599573C2B7FCBBA82909E156578
FILE: 02 Vipers Drag.flac
Size: 40595743 Hash: 57792F7B6C5452C0276DBD692F6D747C Accuracy: -m0
Conclusion: CDDA 100%
Signature: 5C2A1FAACB1744DD450641475682F31B924A5BEF
FILE: 01 Lookin' Good, but Feelin' Bad.flac
Size: 20145927 Hash: CB95D775D09B6116B5AFE14589A33FB3 Accuracy: -m0
Conclusion: CDDA 100%
Signature: 9183399515188A8439624BC63C2D5A13E7FBCF9B
... релизы с участием AKI TAKASE на трекере ...
Any questions -> support@pro-jazz.com. По всем вопросам пишите -> support@pro-jazz.com
08:33
218
Нет комментариев. Ваш будет первым!