Вы используете незарегистрированную версию компонента "Вкладки"!

Поиск

(Avant-Garde Jazz) Actis Dato Quartet (Beppe Di Filippo, Matteo Ravizza, Daniele Bertone) - Sin Fronteras - 2012, FLAC (image+.cue), lossless

(Avant-Garde Jazz) Actis Dato Quartet (Beppe Di Filippo, Matteo Ravizza, Daniele Bertone) - Sin Fronteras - 2012, FLAC (image+.cue), lossless
Треклист:
Actis Dato quartet / Sin Fronteras
Жанр: Avant-Garde Jazz
Страна-производитель диска: UK
Год издания: 2012
Издатель (лейбл): Leo Records
Номер по каталогу: CD LR 646
Аудиокодек: FLAC (*.flac)
Тип рипа: image+.cue
Битрейт аудио: lossless
Продолжительность: 66:28
Источник (релизер): cd
Наличие сканов в содержимом раздачи: нет
Треклист:
01. Hotel du Soleil
02. Dakhla
03. Il Segreto di Pulcinella
04. Tangaccio
05. Emirates
06. Tarifa
07. Tibidabo
08. Nikko
09. Fela
10. Carreteras
 
Лог создания рипа
Exact Audio Copy V1.0 beta 2 from 29. April 2011
EAC extraction logfile from 21. January 2013, 12:28
Actis Dato quartet / Sin Fronteras
Used drive : Optiarc DVD RW AD-7170A Adapter: 0 ID: 0
Read mode : Secure
Utilize accurate stream : Yes
Defeat audio cache : Yes
Make use of C2 pointers : No
Read offset correction : 48
Overread into Lead-In and Lead-Out : No
Fill up missing offset samples with silence : Yes
Delete leading and trailing silent blocks : No
Null samples used in CRC calculations : Yes
Used interface : Native Win32 interface for Win NT & 2000
Used output format : User Defined Encoder
Selected bitrate : 320 kBit/s
Quality : High
Add ID3 tag : No
Command line compressor : C:\Program Files\Exact Audio Copy\Flac\flac.exe
Additional command line options : -V -8 -T "Date=%year%" -T "Genre=%genre%" %source%
TOC of the extracted CD
Track | Start | Length | Start sector | End sector
---------------------------------------------------------
1 | 0:00.00 | 9:08.48 | 0 | 41147
2 | 9:08.48 | 4:55.74 | 41148 | 63346
3 | 14:04.47 | 6:59.55 | 63347 | 94826
4 | 21:04.27 | 5:56.45 | 94827 | 121571
5 | 27:00.72 | 9:16.14 | 121572 | 163285
6 | 36:17.11 | 6:06.38 | 163286 | 190773
7 | 42:23.49 | 4:33.65 | 190774 | 211313
8 | 46:57.39 | 6:57.70 | 211314 | 242658
9 | 53:55.34 | 8:25.23 | 242659 | 280556
10 | 62:20.57 | 4:07.66 | 280557 | 299147
Range status and errors
Selected range
Filename K:\ЕАС\Actis Dato quartet - Sin Fronteras.wav
Peak level 100.0 %
Extraction speed 2.1 X
Range quality 99.9 %
Test CRC 01E19661
Copy CRC 01E19661
Copy OK
No errors occurred
AccurateRip summary
Track 1 accurately ripped (confidence 1) [FE9AE40A] (AR v1)
Track 2 accurately ripped (confidence 1) [5F9BFA76] (AR v1)
Track 3 accurately ripped (confidence 1) [FBE5DB4E] (AR v1)
Track 4 accurately ripped (confidence 1) [25A8AE2B] (AR v1)
Track 5 accurately ripped (confidence 1) [F6D5B09A] (AR v1)
Track 6 accurately ripped (confidence 1) [DBBB7ED0] (AR v1)
Track 7 accurately ripped (confidence 1) [8EDAA4BB] (AR v1)
Track 8 accurately ripped (confidence 1) [FAF769A1] (AR v1)
Track 9 accurately ripped (confidence 1) [632CEEBA] (AR v1)
Track 10 accurately ripped (confidence 1) [B79FB481] (AR v1)
All tracks accurately ripped
End of status report
==== Log checksum CD644A8D629BB68F54F0DD37E2F6EB476AF70ABA17224A85530A73073E915DCF ====
 
Содержание индексной карты (.CUE)
REM GENRE Jazz
REM DATE 2012
REM DISCID 8E0F940A
REM COMMENT "ExactAudioCopy v1.0b2"
PERFORMER "Actis Dato quartet"
TITLE "Sin Fronteras"
FILE "Actis Dato quartet - Sin Fronteras.flac" WAVE
TRACK 01 AUDIO
TITLE "Hotel du Soleil"
PERFORMER "Actis Dato quartet"
ISRC 000000000000
INDEX 01 00:00:00
TRACK 02 AUDIO
TITLE "Dakhla"
PERFORMER "Actis Dato quartet"
ISRC 000000000000
INDEX 00 09:06:48
INDEX 01 09:08:48
TRACK 03 AUDIO
TITLE "Il Segreto di Pulcinella"
PERFORMER "Actis Dato quartet"
ISRC 000000000000
INDEX 00 14:02:47
INDEX 01 14:04:47
TRACK 04 AUDIO
TITLE "Tangaccio"
PERFORMER "Actis Dato quartet"
ISRC 000000000000
INDEX 00 21:01:63
INDEX 01 21:04:27
TRACK 05 AUDIO
TITLE "Emirates"
PERFORMER "Actis Dato quartet"
ISRC 000000000000
INDEX 00 26:58:72
INDEX 01 27:00:72
TRACK 06 AUDIO
TITLE "Tarifa"
PERFORMER "Actis Dato quartet"
ISRC 000000000000
INDEX 00 36:13:42
INDEX 01 36:17:11
TRACK 07 AUDIO
TITLE "Tibidabo"
PERFORMER "Actis Dato quartet"
ISRC 000000000000
INDEX 00 42:22:40
INDEX 01 42:23:49
TRACK 08 AUDIO
TITLE "Nikko"
PERFORMER "Actis Dato quartet"
ISRC 000000000000
INDEX 00 46:55:39
INDEX 01 46:57:39
TRACK 09 AUDIO
TITLE "Fela"
PERFORMER "Actis Dato quartet"
ISRC 000000000000
INDEX 00 53:54:29
INDEX 01 53:55:34
TRACK 10 AUDIO
TITLE "Carreteras"
PERFORMER "Actis Dato quartet"
ISRC 000000000000
INDEX 00 62:18:57
INDEX 01 62:20:57
 
Состав
Carlo Actis Dato on baritone & tenor saxes,
Beppe Di Filippo on soprano & alto,
Matteo Ravizza on bass,
Daniele Bertone on drums
Any questions -> support@pro-jazz.com. По всем вопросам пишите -> support@pro-jazz.com
08:11
145
Нет комментариев. Ваш будет первым!