Вы используете незарегистрированную версию компонента "Вкладки"!

Поиск

(Avant-Garde Jazz, AACM) Phil Cohran (Philip Cohran) and The Artistic Heritage Ensemble - Armageddon 1968 - 2010, FLAC (tracks+.cue), lossless

(Avant-Garde Jazz, AACM) Phil Cohran (Philip Cohran) and The Artistic Heritage Ensemble - Armageddon 1968 - 2010, FLAC (tracks+.cue), lossless
Треклист:
Phil Cohran and The Artistic Heritage Ensemble / Armageddon 1968
Жанр: Avant-Garde Jazz, AACM
Год издания: 2010
Издатель (лейбл): Katalyst Entertainment
Номер по каталогу: 639492006964
Страна: USA
Аудиокодек: FLAC (*.flac)
Тип рипа: tracks+.cue
Битрейт аудио: lossless
Продолжительность: 00:33:04
Источник (релизер): davin900
Наличие сканов в содержимом раздачи: нет
Треклист:
1 Motherless Child
2 Creation Of The Beast
3 The Warning
4 The Window
5 Armageddon
Armageddon was conceived in 1958 and written down in 1963. After performing with Sun Ra and benefitting from the teachings of the Honorable Elijah Muhammad, Phil Cohran's compositions changed decidedly, and he began to focus on cosmology and culture.
This particular performance was recorded live at the Affro Arts Theatre at 3900 S. Drexel, Chicago, IL on February 11th, 1968.
youtube
 
Лог создания рипа
X Lossless Decoder version 20120226 (139.1)
XLD extraction logfile from 2012-03-26 18:58:44 +0000
Philip Cohran and the Artistic Heritage Ensemble / Armageddon
Used drive : MATSHITA DVD-R UJ-898 (revision HE13)
Ripper mode : XLD Secure Ripper
Disable audio cache : OK for the drive with a cache less than 1375KiB
Make use of C2 pointers : NO
Read offset correction : 102
Max retry count : 100
Gap status : Analyzed, Appended
TOC of the extracted CD
Track | Start | Length | Start sector | End sector
---------------------------------------------------------
1 | 00:00:00 | 03:37:25 | 0 | 16299
2 | 03:37:25 | 03:59:17 | 16300 | 34241
3 | 07:36:42 | 06:54:44 | 34242 | 65335
4 | 14:31:11 | 11:38:22 | 65336 | 117707
5 | 26:09:33 | 06:56:43 | 117708 | 148950
AccurateRip Summary
Disc not found in AccurateRip DB.
All Tracks
Album gain : -2.11 dB
Peak : 0.964233
Statistics
Read error : 0
Jitter error (maybe fixed) : 0
Retry sector count : 0
Damaged sector count : 0
Track 01
Filename : /Music Torrents/Rips/Philip Cohran and the Artistic Heritage Ensemble - Armageddon (2010) [FLAC]/01 Motherless Child.flac
/Music Torrents/Rips/Philip Cohran and the Artistic Heritage Ensemble - Armageddon (2010) [V0]/01 Motherless Child.mp3
/Music Torrents/Rips/Philip Cohran and the Artistic Heritage Ensemble - Armageddon (2010) [V2]/01 Motherless Child.mp3
/Music Torrents/Rips/Philip Cohran and the Artistic Heritage Ensemble - Armageddon (2010) [320]/01 Motherless Child.mp3
Pre-gap length : 00:02:00
Track gain : 6.77 dB
Peak : 0.694580
CRC32 hash (test run) : 68E94A82
CRC32 hash : 68E94A82
CRC32 hash (skip zero) : 9ABF931F
AccurateRip signature : C0625E7B
->Track not present in AccurateRip database.
Statistics
Read error : 0
Jitter error (maybe fixed) : 0
Retry sector count : 0
Damaged sector count : 0
Track 02
Filename : /Music Torrents/Rips/Philip Cohran and the Artistic Heritage Ensemble - Armageddon (2010) [FLAC]/02 Creation of the Beast.flac
/Music Torrents/Rips/Philip Cohran and the Artistic Heritage Ensemble - Armageddon (2010) [V0]/02 Creation of the Beast.mp3
/Music Torrents/Rips/Philip Cohran and the Artistic Heritage Ensemble - Armageddon (2010) [V2]/02 Creation of the Beast.mp3
/Music Torrents/Rips/Philip Cohran and the Artistic Heritage Ensemble - Armageddon (2010) [320]/02 Creation of the Beast.mp3
Pre-gap length : 00:01:00
Track gain : -0.35 dB
Peak : 0.905853
CRC32 hash (test run) : 95CAF16B
CRC32 hash : 95CAF16B
CRC32 hash (skip zero) : 220DAFC2
AccurateRip signature : 725AC8C8
->Track not present in AccurateRip database.
Statistics
Read error : 0
Jitter error (maybe fixed) : 0
Retry sector count : 0
Damaged sector count : 0
Track 03
Filename : /Music Torrents/Rips/Philip Cohran and the Artistic Heritage Ensemble - Armageddon (2010) [FLAC]/03 The Warning.flac
/Music Torrents/Rips/Philip Cohran and the Artistic Heritage Ensemble - Armageddon (2010) [V0]/03 The Warning.mp3
/Music Torrents/Rips/Philip Cohran and the Artistic Heritage Ensemble - Armageddon (2010) [V2]/03 The Warning.mp3
/Music Torrents/Rips/Philip Cohran and the Artistic Heritage Ensemble - Armageddon (2010) [320]/03 The Warning.mp3
Pre-gap length : 00:02:00
Track gain : -3.99 dB
Peak : 0.945435
CRC32 hash (test run) : F41F9D5A
CRC32 hash : F41F9D5A
CRC32 hash (skip zero) : 39A9CCEC
AccurateRip signature : 39ADEE9C
->Track not present in AccurateRip database.
Statistics
Read error : 0
Jitter error (maybe fixed) : 0
Retry sector count : 0
Damaged sector count : 0
Track 04
Filename : /Music Torrents/Rips/Philip Cohran and the Artistic Heritage Ensemble - Armageddon (2010) [FLAC]/04 The Window.flac
/Music Torrents/Rips/Philip Cohran and the Artistic Heritage Ensemble - Armageddon (2010) [V0]/04 The Window.mp3
/Music Torrents/Rips/Philip Cohran and the Artistic Heritage Ensemble - Armageddon (2010) [V2]/04 The Window.mp3
/Music Torrents/Rips/Philip Cohran and the Artistic Heritage Ensemble - Armageddon (2010) [320]/04 The Window.mp3
Pre-gap length : 00:01:37
Track gain : 3.13 dB
Peak : 0.801422
CRC32 hash (test run) : 7629FA97
CRC32 hash : 7629FA97
CRC32 hash (skip zero) : 1EA04141
AccurateRip signature : 7461247F
->Track not present in AccurateRip database.
Statistics
Read error : 0
Jitter error (maybe fixed) : 0
Retry sector count : 0
Damaged sector count : 0
Track 05
Filename : /Music Torrents/Rips/Philip Cohran and the Artistic Heritage Ensemble - Armageddon (2010) [FLAC]/05 Armageddon.flac
/Music Torrents/Rips/Philip Cohran and the Artistic Heritage Ensemble - Armageddon (2010) [V0]/05 Armageddon.mp3
/Music Torrents/Rips/Philip Cohran and the Artistic Heritage Ensemble - Armageddon (2010) [V2]/05 Armageddon.mp3
/Music Torrents/Rips/Philip Cohran and the Artistic Heritage Ensemble - Armageddon (2010) [320]/05 Armageddon.mp3
Pre-gap length : 00:02:00
Track gain : -1.53 dB
Peak : 0.964233
CRC32 hash (test run) : 9934D1DA
CRC32 hash : 9934D1DA
CRC32 hash (skip zero) : 5732B7F0
AccurateRip signature : C71FE689
->Track not present in AccurateRip database.
Statistics
Read error : 0
Jitter error (maybe fixed) : 0
Retry sector count : 0
Damaged sector count : 0
No errors occurred
End of status report
 
Содержание индексной карты (.CUE)
TITLE "Armageddon"
PERFORMER "Philip Cohran and the Artistic Heritage Ensemble"
REM GENRE "Jazz"
REM DATE "2010"
REM DISCNUMBER 1
REM TOTALDISCS 1
REM DISCID 3F07C205
REM REPLAYGAIN_ALBUM_GAIN -2.11 dB
REM REPLAYGAIN_ALBUM_PEAK 0.964233
FILE "01 Motherless Child.flac" WAVE
TRACK 01 AUDIO
TITLE "Motherless Child"
REM REPLAYGAIN_TRACK_GAIN 6.77 dB
REM REPLAYGAIN_TRACK_PEAK 0.694580
INDEX 01 00:00:00
TRACK 02 AUDIO
TITLE "Creation of the Beast"
REM REPLAYGAIN_TRACK_GAIN -0.35 dB
REM REPLAYGAIN_TRACK_PEAK 0.905853
INDEX 00 03:36:25
FILE "02 Creation of the Beast.flac" WAVE
INDEX 01 00:00:00
TRACK 03 AUDIO
TITLE "The Warning"
REM REPLAYGAIN_TRACK_GAIN -3.99 dB
REM REPLAYGAIN_TRACK_PEAK 0.945435
INDEX 00 03:57:17
FILE "03 The Warning.flac" WAVE
INDEX 01 00:00:00
TRACK 04 AUDIO
TITLE "The Window"
REM REPLAYGAIN_TRACK_GAIN 3.13 dB
REM REPLAYGAIN_TRACK_PEAK 0.801422
INDEX 00 06:53:07
FILE "04 The Window.flac" WAVE
INDEX 01 00:00:00
TRACK 05 AUDIO
TITLE "Armageddon"
REM REPLAYGAIN_TRACK_GAIN -1.53 dB
REM REPLAYGAIN_TRACK_PEAK 0.964233
INDEX 00 11:36:22
FILE "05 Armageddon.flac" WAVE
INDEX 01 00:00:00
 
Об исполнителе (группе)
 
Об альбоме (сборнике)
This album is influenced more under the teachings of Elijah Muhamad compared to the other albums. It starts with a song called “Motherless child”. More than a negro spiritual this is is something from all nations. It is still sung like a slave song sung with the deep baritone voice of Rev.Spencer Jackson backed by a droning-mourning brass section which gives a dramatic tension. This is responded to by the high female voice of Ella Pearl Jackson, as if this second voice is bringing a peaceful motherly nurturing cure to the sorrow of the past.
“Creation of the beast” I guess is based upon one of Eliah Muhamed's science-Fiction-like parables. The music in the track is supposed to “demonstrate the cosmic order being improperly imposed on all facets of our environment”. Musically we hear a deep brass with some disharmonious accents, crying like ducks, harmonies of brass arrangements strangely getting out of balance despite a steady drive, with a few crazy shouts of people, during a rhythmic repetition of a theme, this sounds like a world with a factor of disorder, during a steady rhythmic theme, some nice full brass arrangements can conclude the theme.
“The warning” refers to Hiroshima and the earth as a place of unrest and the concern of some aliens if this could bring cosmic imbalance. This track shows even more transformation processes of a few disharmonic elements. The track unfolds with dramatic switches. The different layers develop rhythmically. Then a deep sax sax solo plays in between it, a wild great solo which I will describe like “a mad dog with feeling for melody” finding pleasant swing in its voice of transformed madness. Then another solo is added on top until the second sax takes over. Rhythmically this is really appealing. Then the full bands takes over the musical themes to some furious height and energetic greatness on the edge of breaking apart, with a few screams in background, and the drama tension gets bigger, while congas and double bass play the theme very steadily. After this the musical composition ends harmoniously with an arranged brass closing theme.
“The Window” continues the story about the vision of the aliens over the situation on the earth, trying to alter the situation through magnetic changes. This track starts with a slow repetition of short musical theme led by thumb piano with a slow brass arrangement on top. It is a dreamy repetition. A sax solo comes on top of that, while the rest of band continues with a sort of hypnotic returning theme in the background, which includes a constant droning sort of notes on brass. The theme with its repetitions on thumb piano is played in a sleepy rhythm. Then the sax improvises over it again, as if awaiting a sort of awakening. With it another solo on eastern clarinet appears. The tension becomes very quiet, but concludes with more arrangement and melody.
The last track, “Armageddon” is a track on unbearable climate changes and disasters. It is a spoken word talking about a final conflict before returning to peace. Drumming, shouts, loud shouts of voices, bass, all are setted into a rather chaotic musical situation, like a filmic description of end of world chaos and conflict, where one of the loudest voices sounds like a preacher, which is first out of balance with the energy, then turning into more spiritual talk when the situation cools down. It is the brass band itself which brings back peace. A last brass harmony theme sounds like a relief as if becoming a song for the rising of the sun. psychemusic.org
 
Состав
Alto Saxophone – Charles James Williams
Baritone Saxophone, Tenor Saxophone – Donald Myrick
Bass – Louis Satterfield
Congas – Master Henry Gibson
Cornet, Composed By, Arranged By – Philip Cohran
Drums [Trap Drums] – Bob Crowder, Jr.
Guitar – Pete Cosey
Oboe [Chinese Musette], Trumpet – Charles Handy
Tenor Saxophone – Eugene Easton
Trombone – Willie Woods (2)
Tuba – Aaron Dodd
Any questions -> support@pro-jazz.com. По всем вопросам пишите -> support@pro-jazz.com
07:44
152
Нет комментариев. Ваш будет первым!