Вы используете незарегистрированную версию компонента "Вкладки"!

Поиск

(Avant-garde / Hard-Bop) The John Coltrane Quartet - Coltrane 1962 [Analogue Productions Remastered 2010 SACD], FLAC (tracks +.cue) lossless

Треклист:
The John Coltrane Quartet / Coltrane 1962 [Analogue Productions Remastered 2010]
Жанр: Avant-garde / Hard-Bop
Страна-производитель диска: Europe
Год издания диска: 2010
Издатель (лейбл): Impulse!/Analogue Productions
Номер по каталогу: CIPJ 21 SA
Аудио кодек: FLAC (*.flac)
Тип рипа: tracks+.cue
Битрейт аудио: lossless
Продолжительность: 40:04
Источник (релизер): Bezz
Наличие сканов в содержимом раздачи: да
Треклист:
1. Out of This World
2. Soul Eyes
3. The Inch Worm
4. Tunji (Toon-gee)
5. Miles' Mode
Originally released in 1962.
Mastered by Kevin Gray.
 
Лог создания рипа
Exact Audio Copy V1.0 beta 1 from 15. November 2010
EAC extraction logfile from 5. March 2011, 7:22
John Coltrane / Coltrane
Used drive : ASUS DVD-E616A2 Adapter: 0 ID: 0
Read mode : Secure
Utilize accurate stream : Yes
Defeat audio cache : Yes
Make use of C2 pointers : No
Read offset correction : 6
Overread into Lead-In and Lead-Out : Yes
Fill up missing offset samples with silence : Yes
Delete leading and trailing silent blocks : No
Null samples used in CRC calculations : Yes
Used interface : Native Win32 interface for Win NT & 2000
Gap handling : Appended to previous track
Used output format : User Defined Encoder
Selected bitrate : 128 kBit/s
Quality : High
Add ID3 tag : No
Command line compressor : C:\Program Files\FLAC\flac.exe
Additional command line options : -8 -V -T "ARTIST=%a" -T "TITLE=%t" -T "ALBUM=%g" -T "DATE=%y" -T "TRACKNUMBER=%n" -T "TOTALTRACKS=%x" -T "GENRE=%m" -T "ALBUM ARTIST=%v" -T "ALBUMARTIST=%v" -T "COMMENT=L2Bits, EAC V1.0 beta 1, Secure Mode, Test & Copy, Acc
TOC of the extracted CD
Track | Start | Length | Start sector | End sector
---------------------------------------------------------
1 | 0:00.00 | 14:06.19 | 0 | 63468
2 | 14:06.19 | 5:26.54 | 63469 | 87972
3 | 19:32.73 | 6:17.45 | 87973 | 116292
4 | 25:50.43 | 6:35.71 | 116293 | 145988
5 | 32:26.39 | 7:38.29 | 145989 | 180367
Track 1
Filename E:\Bezz Rip\01 - Coltrane - Out Of This World.wav
Pre-gap length 0:00:02.00
Peak level 82.5 %
Extraction speed 2.3 X
Track quality 100.0 %
Test CRC 1129CCA4
Copy CRC 1129CCA4
Accurately ripped (confidence 9) [10C22F2D]
Copy OK
Track 2
Filename E:\Bezz Rip\02 - Coltrane - Soul Eyes.wav
Pre-gap length 0:00:00.33
Peak level 63.9 %
Extraction speed 2.5 X
Track quality 100.0 %
Test CRC D5826904
Copy CRC D5826904
Accurately ripped (confidence 9) [F74B2E0A]
Copy OK
Track 3
Filename E:\Bezz Rip\03 - Coltrane - The Inch Worm.wav
Pre-gap length 0:00:00.33
Peak level 70.7 %
Extraction speed 2.8 X
Track quality 100.0 %
Test CRC 858F412F
Copy CRC 858F412F
Accurately ripped (confidence 9) [CEFEF7C2]
Copy OK
Track 4
Filename E:\Bezz Rip\04 - Coltrane - Tunji (Toon-gee).wav
Pre-gap length 0:00:00.33
Peak level 71.4 %
Extraction speed 3.0 X
Track quality 100.0 %
Test CRC 04ACE025
Copy CRC 04ACE025
Accurately ripped (confidence 9) [E3FB593C]
Copy OK
Track 5
Filename E:\Bezz Rip\05 - Coltrane - Miles' Mode.wav
Pre-gap length 0:00:00.33
Peak level 70.0 %
Extraction speed 3.5 X
Track quality 100.0 %
Test CRC 6E8E2E3D
Copy CRC 6E8E2E3D
Accurately ripped (confidence 9) [202A8A6A]
Copy OK
All tracks accurately ripped
No errors occurred
End of status report
==== Log checksum 986DFE1300A6715FE825DCE422BB64170C4984CBDE1D3BBDBDA8319F1A7F0CF0 ====
 
Содержание индексной карты (.CUE)
REM GENRE Jazz
REM DATE 2010
REM DISCID 46096405
REM COMMENT "ExactAudioCopy v1.0b1"
PERFORMER "John Coltrane"
TITLE "Coltrane"
FILE "01 - Coltrane - Out Of This World.wav" WAVE
TRACK 01 AUDIO
TITLE "Out Of This World"
PERFORMER "John Coltrane"
INDEX 01 00:00:00
TRACK 02 AUDIO
TITLE "Soul Eyes"
PERFORMER "John Coltrane"
INDEX 00 14:05:61
FILE "02 - Coltrane - Soul Eyes.wav" WAVE
INDEX 01 00:00:00
TRACK 03 AUDIO
TITLE "The Inch Worm"
PERFORMER "John Coltrane"
INDEX 00 05:26:21
FILE "03 - Coltrane - The Inch Worm.wav" WAVE
INDEX 01 00:00:00
TRACK 04 AUDIO
TITLE "Tunji (Toon-gee)"
PERFORMER "John Coltrane"
INDEX 00 06:17:12
FILE "04 - Coltrane - Tunji (Toon-gee).wav" WAVE
INDEX 01 00:00:00
TRACK 05 AUDIO
TITLE "Miles' Mode"
PERFORMER "John Coltrane"
INDEX 00 06:35:38
FILE "05 - Coltrane - Miles' Mode.wav" WAVE
INDEX 01 00:00:00
 
Об альбоме (сборнике)
Recorded over the course of three months in 1962, Coltrane was John Coltrane's third album for Impulse, but his first for the label devoted entirely to his regular working group. It was also the first album on any label to showcase what came to be known as the classic John Coltrane Quartet. That group – with McCoy Tyner on piano, Jimmy Garrison on bass and Elvin Jones on drums – established itself in its four years of existence as one of the most influential ensembles in jazz, and one of the most popular as well. Coltrane documents its genesis. ~ AcousticSounds
 
Состав
John Coltrane, tenor saxophone, soprano saxophone
Paul Chambers, bass
Red Garland, piano
Jimmy Garrison, bass
Albert "Tootie" Heath, drums
Elvin Jones, drums
Sahib Shihab, alto saxophone
McCoy Tyner, piano
По всем вопросам пишите личное сообщение пользователю M0p94ok.
10:29
210
Нет комментариев. Ваш будет первым!