Вы используете незарегистрированную версию компонента "Вкладки"!

Поиск

(avant-garde) Glen Hall / Outsource / Roswell Rudd - The Roswell Incident 2001, FLAC (tracks+.cue), lossless

(avant-garde) Glen Hall / Outsource / Roswell Rudd - The Roswell Incident 2001, FLAC (tracks+.cue), lossless
Треклист:


Glen Hall / Outsource / Roswell Rudd
The Roswell Incident
Жанр: avant-garde
Год выпуска: 2001
Издатель (лейбл):Leo Records / LR 313
Формат: FLAC (tracks+.cue)
Битрейт аудио: lossless
Продолжительность 52`43
Источник: what.cd
Bass – Michael Morse
Drums – Barry Romberg
Electronics, Bass Clarinet, Flute [Bass], Tenor Saxophone, Soprano Saxophone – Glenn Hall
Guitar, Banjo – Michael Occhipinti
Trombone – Roswell Rudd
Vibraphone [Vibes] – Allan Molnar
Recorded on 1 May 1999 at The Percussion Studio, Toronto

tracks

1 - Mescal's Pastels
2 - Penny Arcade Peep Show
3 - The Bowery
4 - Rooster Steps
5 - The Inscrutable Mr. Mee Too
6 - Short
7 - Chico
8 - King Korn
9 - The Flow


 
.log
Exact Audio Copy V1.0 beta 3 from 29. August 2011
EAC extraction logfile from 19. December 2012, 11:10
Glen Hall and OutSource / The Roswell Incident
Used drive : Optiarc DVD RW AD-5280S Adapter: 2 ID: 0
Read mode : Secure
Utilize accurate stream : Yes
Defeat audio cache : Yes
Make use of C2 pointers : No
Read offset correction : 48
Overread into Lead-In and Lead-Out : No
Fill up missing offset samples with silence : Yes
Delete leading and trailing silent blocks : No
Null samples used in CRC calculations : Yes
Used interface : Native Win32 interface for Win NT & 2000
Gap handling : Appended to previous track
Used output format : User Defined Encoder
Selected bitrate : 1024 kBit/s
Quality : High
Add ID3 tag : No
Command line compressor : C:\Program Files (x86)\Exact Audio Copy\Flac\flac.exe
Additional command line options : -8 -V -T "ARTIST=%artist%" -T "TITLE=%title%" -T "ALBUM=%albumtitle%" -T "DATE=%year%" -T "TRACKNUMBER=%tracknr%" -T "GENRE=%genre%" -T "PERFORMER=%albuminterpret%" -T "COMPOSER=%composer%" %haslyrics%--tag-from-file=LYRICS="%lyricsfile%"%haslyrics% -T "ALBUMARTIST=%albumartist%" -T "DISCNUMBER=%cdnumber%" -T "TOTALDISCS=%totalcds%" -T "TOTALTRACKS=%numtracks%" -T "COMMENT=%comment%" %source% -o %dest%
TOC of the extracted CD
Track | Start | Length | Start sector | End sector
---------------------------------------------------------
1 | 0:01.00 | 6:18.38 | 75 | 28462
2 | 6:19.38 | 9:13.61 | 28463 | 69998
3 | 15:33.24 | 4:22.49 | 69999 | 89697
4 | 19:55.73 | 8:29.21 | 89698 | 127893
5 | 28:25.19 | 5:17.72 | 127894 | 151740
6 | 33:43.16 | 0:47.56 | 151741 | 155321
7 | 34:30.72 | 7:01.68 | 155322 | 186964
8 | 41:32.65 | 6:53.45 | 186965 | 217984
9 | 48:26.35 | 4:17.58 | 217985 | 237317
Track 1
Filename H:\uTorrent\Glen Hall and OutSource - 2001 - The Roswell Incident [FLAC]\01 - Mescal's Pastels.wav
Pre-gap length 0:00:03.00
Peak level 100.0 %
Extraction speed 2.7 X
Track quality 100.0 %
Test CRC 3413D05B
Copy CRC 3413D05B
Track not present in AccurateRip database
Copy OK
Track 2
Filename H:\uTorrent\Glen Hall and OutSource - 2001 - The Roswell Incident [FLAC]\02 - Penny Arcade Peep Show.wav
Pre-gap length 0:00:02.60
Peak level 100.0 %
Extraction speed 3.3 X
Track quality 100.0 %
Test CRC C4DA408F
Copy CRC C4DA408F
Track not present in AccurateRip database
Copy OK
Track 3
Filename H:\uTorrent\Glen Hall and OutSource - 2001 - The Roswell Incident [FLAC]\03 - The Bowery.wav
Pre-gap length 0:00:02.60
Peak level 81.6 %
Extraction speed 3.4 X
Track quality 100.0 %
Test CRC A9A2CD23
Copy CRC A9A2CD23
Track not present in AccurateRip database
Copy OK
Track 4
Filename H:\uTorrent\Glen Hall and OutSource - 2001 - The Roswell Incident [FLAC]\04 - Rooster Steps.wav
Pre-gap length 0:00:02.60
Peak level 100.0 %
Extraction speed 3.8 X
Track quality 99.9 %
Test CRC 9BE8C467
Copy CRC 9BE8C467
Track not present in AccurateRip database
Copy OK
Track 5
Filename H:\uTorrent\Glen Hall and OutSource - 2001 - The Roswell Incident [FLAC]\05 - The Inscrutable Mr. Mee Too.wav
Pre-gap length 0:00:02.60
Peak level 54.5 %
Extraction speed 4.2 X
Track quality 100.0 %
Test CRC 6EFDDDD4
Copy CRC 6EFDDDD4
Track not present in AccurateRip database
Copy OK
Track 6
Filename H:\uTorrent\Glen Hall and OutSource - 2001 - The Roswell Incident [FLAC]\06 - Shortx.wav
Pre-gap length 0:00:02.60
Peak level 100.0 %
Extraction speed 2.7 X
Track quality 100.0 %
Test CRC 477D4478
Copy CRC 477D4478
Track not present in AccurateRip database
Copy OK
Track 7
Filename H:\uTorrent\Glen Hall and OutSource - 2001 - The Roswell Incident [FLAC]\07 - Chico.wav
Pre-gap length 0:00:02.60
Peak level 63.8 %
Extraction speed 4.6 X
Track quality 100.0 %
Test CRC BE89D455
Copy CRC BE89D455
Track not present in AccurateRip database
Copy OK
Track 8
Filename H:\uTorrent\Glen Hall and OutSource - 2001 - The Roswell Incident [FLAC]\08 - King Kornx.wav
Pre-gap length 0:00:02.60
Peak level 95.7 %
Extraction speed 4.8 X
Track quality 100.0 %
Test CRC 3E2F7FF5
Copy CRC 3E2F7FF5
Track not present in AccurateRip database
Copy OK
Track 9
Filename H:\uTorrent\Glen Hall and OutSource - 2001 - The Roswell Incident [FLAC]\09 - The Flow.wav
Pre-gap length 0:00:02.60
Peak level 73.5 %
Extraction speed 4.8 X
Track quality 100.0 %
Test CRC 45AC31F2
Copy CRC 45AC31F2
Track not present in AccurateRip database
Copy OK
None of the tracks are present in the AccurateRip database
No errors occurred
End of status report
==== Log checksum EBFC91EFB796C7FBFB2EC5A460B8FC7AF5156CBE07457E323769C9D83EC38AAC ====
 
.cue
REM GENRE Jazz
REM DATE 2001
REM DISCID 7B0C5B09
REM COMMENT "ExactAudioCopy v1.0b3"
CATALOG 0000000000000
PERFORMER " Glen Hall / Outsource / Roswell Rudd "
TITLE "The Roswell Incident"
FILE "01 - Mescal's Pastels.wav" WAVE
TRACK 01 AUDIO
TITLE "Mescal's Pastels"
PERFORMER " Glen Hall / Outsource / Roswell Rudd "
FLAGS DCP
PREGAP 00:01:00
INDEX 01 00:00:00
TRACK 02 AUDIO
TITLE "Penny Arcade Peep Show"
PERFORMER " Glen Hall / Outsource / Roswell Rudd "
FLAGS DCP
INDEX 00 06:15:68
FILE "02 - Penny Arcade Peep Show.wav" WAVE
INDEX 01 00:00:00
TRACK 03 AUDIO
TITLE "The Bowery"
PERFORMER " Glen Hall / Outsource / Roswell Rudd "
FLAGS DCP
INDEX 00 09:11:16
FILE "03 - The Bowery.wav" WAVE
INDEX 01 00:00:00
TRACK 04 AUDIO
TITLE "Rooster Steps"
PERFORMER " Glen Hall / Outsource / Roswell Rudd "
FLAGS DCP
INDEX 00 04:20:04
FILE "04 - Rooster Steps.wav" WAVE
INDEX 01 00:00:00
TRACK 05 AUDIO
TITLE "The Inscrutable Mr. Mee Too"
PERFORMER " Glen Hall / Outsource / Roswell Rudd "
FLAGS DCP
INDEX 00 08:26:51
FILE "05 - The Inscrutable Mr. Mee Too.wav" WAVE
INDEX 01 00:00:00
TRACK 06 AUDIO
TITLE "Short*"
PERFORMER " Glen Hall / Outsource / Roswell Rudd "
FLAGS DCP
INDEX 00 05:15:27
FILE "06 - Shortx.wav" WAVE
INDEX 01 00:00:00
TRACK 07 AUDIO
TITLE "Chico"
PERFORMER " Glen Hall / Outsource / Roswell Rudd "
FLAGS DCP
INDEX 00 00:45:11
FILE "07 - Chico.wav" WAVE
INDEX 01 00:00:00
TRACK 08 AUDIO
TITLE "King Korn*"
PERFORMER " Glen Hall / Outsource / Roswell Rudd "
FLAGS DCP
INDEX 00 06:59:23
FILE "08 - King Kornx.wav" WAVE
INDEX 01 00:00:00
TRACK 09 AUDIO
TITLE "The Flow"
PERFORMER " Glen Hall / Outsource / Roswell Rudd "
FLAGS DCP
INDEX 00 06:51:00
FILE "09 - The Flow.wav" WAVE
INDEX 01 00:00:00

другие релизы
Any questions -> support@pro-jazz.com. По всем вопросам пишите -> support@pro-jazz.com
07:14
147
Нет комментариев. Ваш будет первым!