Вы используете незарегистрированную версию компонента "Вкладки"!

Поиск

(Avant-Garde, Free Jazz, TUM Records Oy) [CD] Wadada Leo Smith (w/ Henry Threadgill, John Lindberg, Jack DeJohnette) - The Great Lakes Suites (2CDs) - 2014, FLAC (tracks+.cue), lossless

(Avant-Garde, Free Jazz, TUM Records Oy) [CD] Wadada Leo Smith (w/ Henry Threadgill, John Lindberg, Jack DeJohnette) - The Great Lakes Suites (2CDs) - 2014, FLAC (tracks+.cue), lossless
Треклист:
Wadada Leo Smith / The Great Lakes Suites (2CDs)
Жанр: Avant-Garde, Free Jazz
Носитель: CD
Страна-производитель диска: Finland
Год издания: 2014
Издатель (лейбл): TUM Records Oy
Номер по каталогу: TUM CD 041-2
Аудиокодек: FLAC (*.flac)
Тип рипа: tracks+.cue
Битрейт аудио: lossless
Продолжительность: 41:59 + 48:44
Источник (релизер): я
Наличие сканов в содержимом раздачи: да
Треклист:
Disc 1
1. Lake Michigan 22:01
2. Lake Ontario 9:19
3. Lake Superior 10:40
Disc 2
1. Lake Huron 17:25
2. Lake Erie 17:38
3. Lake St. Clair 13:40
All compositions by Wadada Leo Smith.
Recorded at Avatar Studios in New York City on December 20, 2012.
Wadada Leo Smith – Trumpet
Henry Threadgill – Alto Saxophone, Flute and Bass Flute
John Lindberg – Double Bass
Jack DeJohnette – Drums
 
Лог создания рипа
 
Disc 1
Exact Audio Copy V1.0 beta 3 from 29. August 2011
EAC extraction logfile from 27. September 2014, 21:24
Wadada Leo Smith / The Great Lakes Suites (Disc 1)
Used drive : SlimtypeeNAU508 5 Adapter: 1 ID: 0
Read mode : Secure
Utilize accurate stream : Yes
Defeat audio cache : Yes
Make use of C2 pointers : No
Read offset correction : 6
Overread into Lead-In and Lead-Out : No
Fill up missing offset samples with silence : Yes
Delete leading and trailing silent blocks : No
Null samples used in CRC calculations : Yes
Used interface : Native Win32 interface for Win NT & 2000
Gap handling : Appended to previous track
Used output format : User Defined Encoder
Selected bitrate : 768 kBit/s
Quality : High
Add ID3 tag : No
Command line compressor : C:\Program Files (x86)\Exact Audio Copy\Flac\flac.exe
Additional command line options : -8 -V -T "ARTIST=%artist%" -T "TITLE=%title%" -T "ALBUM=%albumtitle%" -T "DATE=%year%" -T "TRACKNUMBER=%tracknr%" -T "TOTALTRACKS=%numtracks%" -T "GENRE=%genre%" -T "ALBUMARTIST=%albumartist%" -T "ALBUM ARTIST=%albumartist%" -T "COMMENT=EAC Secure Mode, Test & Copy, AccurateRip, FLAC -8" %source%
TOC of the extracted CD
Track | Start | Length | Start sector | End sector
---------------------------------------------------------
1 | 0:00.00 | 22:00.69 | 0 | 99068
2 | 22:00.69 | 9:18.52 | 99069 | 140970
3 | 31:19.46 | 10:39.66 | 140971 | 188961
Track 1
Filename C:\EAC rips\01 - Lake Michigan.wav
Pre-gap length 0:00:02.00
Peak level 96.6 %
Extraction speed 2.9 X
Track quality 100.0 %
Test CRC 9D26303A
Copy CRC 9D26303A
Track not present in AccurateRip database
Copy OK
Track 2
Filename C:\EAC rips\02 - Lake Ontario.wav
Pre-gap length 0:00:06.32
Peak level 96.6 %
Extraction speed 3.5 X
Track quality 100.0 %
Test CRC 36D4C899
Copy CRC 36D4C899
Track not present in AccurateRip database
Copy OK
Track 3
Filename C:\EAC rips\03 - Lake Superior.wav
Pre-gap length 0:00:06.00
Peak level 96.6 %
Extraction speed 3.9 X
Track quality 100.0 %
Test CRC 8CBBCB9F
Copy CRC 8CBBCB9F
Track not present in AccurateRip database
Copy OK
None of the tracks are present in the AccurateRip database
No errors occurred
End of status report
---- CUETools DB Plugin V2.1.4
[CTDB TOCID: 8DhWSGND9ubdZWIsl62sepFsZaI-] found
Submit result: already submitted
Track | CTDB Status
1 | (1/1) Accurately ripped
2 | (1/1) Accurately ripped
3 | (1/1) Accurately ripped
==== Log checksum E1B74AD7750299F284055253367E5735067A633F11096C79667AF8B632A66272 ====
 
Disc 2
Exact Audio Copy V1.0 beta 3 from 29. August 2011
EAC extraction logfile from 27. September 2014, 22:20
Wadada Leo Smith / The Great Lakes Suites (Disc 2)
Used drive : SlimtypeeNAU508 5 Adapter: 1 ID: 0
Read mode : Secure
Utilize accurate stream : Yes
Defeat audio cache : Yes
Make use of C2 pointers : No
Read offset correction : 6
Overread into Lead-In and Lead-Out : No
Fill up missing offset samples with silence : Yes
Delete leading and trailing silent blocks : No
Null samples used in CRC calculations : Yes
Used interface : Native Win32 interface for Win NT & 2000
Gap handling : Appended to previous track
Used output format : User Defined Encoder
Selected bitrate : 768 kBit/s
Quality : High
Add ID3 tag : No
Command line compressor : C:\Program Files (x86)\Exact Audio Copy\Flac\flac.exe
Additional command line options : -8 -V -T "ARTIST=%artist%" -T "TITLE=%title%" -T "ALBUM=%albumtitle%" -T "DATE=%year%" -T "TRACKNUMBER=%tracknr%" -T "TOTALTRACKS=%numtracks%" -T "GENRE=%genre%" -T "ALBUMARTIST=%albumartist%" -T "ALBUM ARTIST=%albumartist%" -T "COMMENT=EAC Secure Mode, Test & Copy, AccurateRip, FLAC -8" %source%
TOC of the extracted CD
Track | Start | Length | Start sector | End sector
---------------------------------------------------------
1 | 0:00.00 | 17:25.09 | 0 | 78383
2 | 17:25.09 | 17:37.71 | 78384 | 157729
3 | 35:03.05 | 13:40.34 | 157730 | 219263
Track 1
Filename C:\EAC rips\01 - Lake Huron.wav
Pre-gap length 0:00:02.00
Peak level 96.6 %
Extraction speed 1.3 X
Track quality 99.9 %
Test CRC 839E5E1E
Copy CRC 839E5E1E
Track not present in AccurateRip database
Copy OK
Track 2
Filename C:\EAC rips\02 - Lake Erie.wav
Pre-gap length 0:00:06.04
Peak level 96.6 %
Extraction speed 1.8 X
Track quality 100.0 %
Test CRC 59886AC8
Copy CRC 59886AC8
Track not present in AccurateRip database
Copy OK
Track 3
Filename C:\EAC rips\03 - Lake St. Clair.wav
Peak level 96.6 %
Extraction speed 2.1 X
Track quality 100.0 %
Test CRC F16A4C03
Copy CRC F16A4C03
Track not present in AccurateRip database
Copy OK
None of the tracks are present in the AccurateRip database
No errors occurred
End of status report
---- CUETools DB Plugin V2.1.4
[CTDB TOCID: FuoIoXEgPNUAt2Ae7X09W2T2SDc-] found
Submit result: already submitted
Track | CTDB Status
1 | (1/1) Accurately ripped
2 | (1/1) Accurately ripped
3 | (1/1) Accurately ripped
==== Log checksum 4FFC47AD65ADF368BD8BBC682BEFEF5D32F310244B7AD189A02690DAEDEBAECD ====
 
Содержание индексной карты (.CUE)
 
Disc 1
REM GENRE Jazz
REM DATE 2014
REM DISCID 1C09D703
REM COMMENT "ExactAudioCopy v1.0b3"
PERFORMER "Wadada Leo Smith"
TITLE "The Great Lakes Suites (Disc 1)"
FILE "01 - Lake Michigan.wav" WAVE
TRACK 01 AUDIO
TITLE "Lake Michigan"
PERFORMER "Wadada Leo Smith"
ISRC FITU91400024
INDEX 01 00:00:00
TRACK 02 AUDIO
TITLE "Lake Ontario"
PERFORMER "Wadada Leo Smith"
ISRC FITU91400025
INDEX 00 21:54:37
FILE "02 - Lake Ontario.wav" WAVE
INDEX 01 00:00:00
TRACK 03 AUDIO
TITLE "Lake Superior"
PERFORMER "Wadada Leo Smith"
ISRC FITU91400026
INDEX 00 09:12:52
FILE "03 - Lake Superior.wav" WAVE
INDEX 01 00:00:00
 
Disc 2
REM GENRE Jazz
REM DATE 2014
REM DISCID 160B6B03
REM COMMENT "ExactAudioCopy v1.0b3"
PERFORMER "Wadada Leo Smith"
TITLE "The Great Lakes Suites (Disc 2)"
FILE "01 - Lake Huron.wav" WAVE
TRACK 01 AUDIO
TITLE "Lake Huron"
PERFORMER "Wadada Leo Smith"
ISRC FITU91400027
INDEX 01 00:00:00
TRACK 02 AUDIO
TITLE "Lake Erie"
PERFORMER "Wadada Leo Smith"
ISRC FITU91400028
INDEX 00 17:19:05
FILE "02 - Lake Erie.wav" WAVE
INDEX 01 00:00:00
FILE "03 - Lake St. Clair.wav" WAVE
TRACK 03 AUDIO
TITLE "Lake St. Clair"
PERFORMER "Wadada Leo Smith"
ISRC FITU91400029
INDEX 01 00:00:00
По всем вопросам пишите личное сообщение пользователю M0p94ok.
04:56
236
Нет комментариев. Ваш будет первым!