Вы используете незарегистрированную версию компонента "Вкладки"!

Поиск

(Avant-Garde, Free Jazz, Post-Bop) [CD] Dave Burrell & David Murray - Brother to Brother - 1993, FLAC (tracks+.cue), lossless

(Avant-Garde, Free Jazz, Post-Bop) [CD] Dave Burrell & David Murray - Brother to Brother - 1993, FLAC (tracks+.cue), lossless
Треклист:
Dave Burrell & David Murray / Brother to Brother
Жанр: Avant-Garde, Free Jazz, Post-Bop
Носитель: CD
Страна-производитель диска: U.S.A.
Год издания: 1993
Издатель (лейбл): Gazell Productions
Номер по каталогу: GJCD 4006
Аудиокодек: FLAC (*.flac)
Тип рипа: tracks+.cue
Битрейт аудио: lossless
Продолжительность: 46:27
Источник (релизер): я
Наличие сканов в содержимом раздачи: да
Треклист:
1. The Box (dedicated to Diane Burrell) (Dave Burrell) 7:08
2. Icarus (David Murray) 8:52
3. Dancing with Monika (Dave Burrell) 6:48
4. New Orleans Blues (Jelly Roll Morton) 5:12
5. Brother to Brother (Dave Burrell / Monika Larsson) 7:28
6. What It Means to a Woman (Dave Burrell / Monika Larsson) 10:59
All arrangements except « Icarus » by Dave Burrell.
Recorded at Morning Star Studio, Spring House, Pennsylvania.
Dave Burrell – Piano
David Murray – Tenor Sax, Bass Clarinet on #2
 
Лог создания рипа
Exact Audio Copy V1.0 beta 3 from 29. August 2011
EAC extraction logfile from 11. November 2013, 14:43
Dave Burrell & David Murray / Brother to Brother
Used drive : SlimtypeeNAU508 5 Adapter: 1 ID: 0
Read mode : Secure
Utilize accurate stream : Yes
Defeat audio cache : Yes
Make use of C2 pointers : No
Read offset correction : 6
Overread into Lead-In and Lead-Out : No
Fill up missing offset samples with silence : Yes
Delete leading and trailing silent blocks : No
Null samples used in CRC calculations : Yes
Used interface : Native Win32 interface for Win NT & 2000
Gap handling : Appended to previous track
Used output format : User Defined Encoder
Selected bitrate : 768 kBit/s
Quality : High
Add ID3 tag : No
Command line compressor : C:\Program Files (x86)\Exact Audio Copy\Flac\flac.exe
Additional command line options : -8 -V -T "ARTIST=%artist%" -T "TITLE=%title%" -T "ALBUM=%albumtitle%" -T "DATE=%year%" -T "TRACKNUMBER=%tracknr%" -T "GENRE=%genre%" -T "PERFORMER=%albuminterpret%" -T "COMPOSER=%composer%" %haslyrics%--tag-from-file=LYRICS="%lyricsfile%"%haslyrics% -T "ALBUMARTIST=%albumartist%" -T "DISCNUMBER=%cdnumber%" -T "TOTALDISCS=%totalcds%" -T "TOTALTRACKS=%numtracks%" -T "COMMENT=%comment%" %source% -o %dest%
TOC of the extracted CD
Track | Start | Length | Start sector | End sector
---------------------------------------------------------
1 | 0:00.00 | 7:08.02 | 0 | 32101
2 | 7:08.02 | 8:52.00 | 32102 | 72001
3 | 16:00.02 | 6:48.03 | 72002 | 102604
4 | 22:48.05 | 5:11.70 | 102605 | 125999
5 | 28:00.00 | 7:28.02 | 126000 | 159601
6 | 35:28.02 | 10:59.15 | 159602 | 209041
Track 1
Filename C:\EAC rips\01 - The Box (dedicated to Diane).wav
Pre-gap length 0:00:02.00
Peak level 84.3 %
Extraction speed 1.2 X
Track quality 100.0 %
Test CRC FD3A35F5
Copy CRC FD3A35F5
Accurately ripped (confidence 3) [9E5A183F] (AR v1)
Copy OK
Track 2
Filename C:\EAC rips\02 - Icarus.wav
Pre-gap length 0:00:03.47
Peak level 93.0 %
Extraction speed 1.4 X
Track quality 100.0 %
Test CRC C008C344
Copy CRC C008C344
Accurately ripped (confidence 3) [4B22B5CE] (AR v1)
Copy OK
Track 3
Filename C:\EAC rips\03 - Dancing with Monika.wav
Peak level 66.6 %
Extraction speed 1.5 X
Track quality 99.9 %
Test CRC 3D2413E9
Copy CRC 3D2413E9
Accurately ripped (confidence 3) [13256F9B] (AR v1)
Copy OK
Track 4
Filename C:\EAC rips\04 - New Orleans Blues.wav
Pre-gap length 0:00:00.63
Peak level 63.6 %
Extraction speed 1.7 X
Track quality 100.0 %
Test CRC 7C62AF48
Copy CRC 7C62AF48
Accurately ripped (confidence 3) [E29BCBDC] (AR v1)
Copy OK
Track 5
Filename C:\EAC rips\05 - Brother to Brother.wav
Pre-gap length 0:00:01.58
Peak level 67.4 %
Extraction speed 1.9 X
Track quality 100.0 %
Test CRC 7205D9B8
Copy CRC 7205D9B8
Accurately ripped (confidence 3) [DFF4E2DB] (AR v1)
Copy OK
Track 6
Filename C:\EAC rips\06 - What It Means to a Woman.wav
Peak level 63.9 %
Extraction speed 2.1 X
Track quality 100.0 %
Test CRC F0866889
Copy CRC F0866889
Accurately ripped (confidence 3) [F2E57716] (AR v1)
Copy OK
All tracks accurately ripped
No errors occurred
End of status report
---- CUETools DB Plugin V2.1.4
[CTDB TOCID: 7q1b0w6AZ1eupDNnt86EsQ4Oi0Y-] disk not present in database
Submit result: 7q1b0w6AZ1eupDNnt86EsQ4Oi0Y- has been uploaded
==== Log checksum BC4A1A7BC5564CD9E80855AD50152E0823BE1C03AA143354934ECEA20B5A7BC6 ====
 
Содержание индексной карты (.CUE)
REM GENRE Jazz
REM DATE 1993
REM DISCID 3C0AE306
REM COMMENT "ExactAudioCopy v1.0b3"
PERFORMER "Dave Burrell & David Murray"
TITLE "Brother to Brother"
FILE "01 - The Box (dedicated to Diane).wav" WAVE
TRACK 01 AUDIO
TITLE "The Box (dedicated to Diane)"
PERFORMER "Dave Burrell & David Murray"
INDEX 01 00:00:00
TRACK 02 AUDIO
TITLE "Icarus"
PERFORMER "Dave Burrell & David Murray"
INDEX 00 07:04:30
FILE "02 - Icarus.wav" WAVE
INDEX 01 00:00:00
FILE "03 - Dancing with Monika.wav" WAVE
TRACK 03 AUDIO
TITLE "Dancing with Monika"
PERFORMER "Dave Burrell & David Murray"
INDEX 01 00:00:00
TRACK 04 AUDIO
TITLE "New Orleans Blues"
PERFORMER "Dave Burrell & David Murray"
INDEX 00 06:47:15
FILE "04 - New Orleans Blues.wav" WAVE
INDEX 01 00:00:00
TRACK 05 AUDIO
TITLE "Brother to Brother"
PERFORMER "Dave Burrell & David Murray"
INDEX 00 05:10:12
FILE "05 - Brother to Brother.wav" WAVE
INDEX 01 00:00:00
FILE "06 - What It Means to a Woman.wav" WAVE
TRACK 06 AUDIO
TITLE "What It Means to a Woman"
PERFORMER "Dave Burrell & David Murray"
INDEX 01 00:00:00
По всем вопросам пишите личное сообщение пользователю M0p94ok.
23:49
164
Нет комментариев. Ваш будет первым!