Вы используете незарегистрированную версию компонента "Вкладки"!

Поиск

(Avant-Garde,Free Jazz) Pharoah Sanders - Tauhid - 2001, FLAC (image+.cue), lossless

(Avant-Garde,Free Jazz) Pharoah Sanders - Tauhid - 2001, FLAC (image+.cue), lossless
Треклист:
Pharoah Sanders - Tauhid
Жанр: Avant-Garde,Free Jazz
Год выпуска диска: 2001
Производитель диска: Impulse
Аудио кодек: FLAC
Тип рипа: image+.cue
Битрейт аудио: lossless
Продолжительность: 34:37:54
Источник:Собственный рип с диска (UCCI-9126)
Трэклист:
1. Upper Egypt & Lower Egypt 16:20
2. Japan 3:27
3. a. Aum b. Venus c. Capricorn Rising 14:50
personnel:
Pharoah Sanders (Tenor and Alto Saxophone, Piccolo and Vocals)
Sonny Sharrock (Guitar)
Dave Burrell (Piano)
Henry Grimes (Bass)
Roger Blank (Drums)
Nat Bettis (Percussion)
Recorded at the Van Gelder Studio, Engelwood Cliffs, New Jersey, 15/11/1966.
 
EAC Log
Exact Audio Copy V0.99 prebeta 4 from 23. January 2008
Отчёт EAC об извлечении, выполненном 2. февраля 2010, 18:09
Pharoah Sanders / Tauhid
Дисковод: LITE-ON DVDRW LH-20A1H Adapter: 0 ID: 0
Режим чтения : Достоверность
Использование точного потока : Да
Отключение кэша аудио : Да
Использование указателей C2 : Нет
Коррекция смещения при чтении : 6
Способность читать области Lead-in и Lead-out : Нет
Заполнение пропущенных сэмплов тишиной : Да
Удаление блоков с тишиной в начале и конце : Нет
При вычислениях CRC использовались нулевые сэмплы : Да
Интерфейс : Установленный внешний ASPI-интерфейс
Выходной формат : Пользовательский кодировщик
Выбранный битрейт : 768 kBit/s
Качество : Высокий
Добавление ID3-тэга : Нет
Утилита сжатия : C:\Program Files\Exact Audio Copy\FLAC\FLAC.EXE
Дополнительные параметры : -6 -V -T "ARTIST=%a" -T "TITLE=%t" -T "ALBUM=%g" -T "DATE=%y" -T "TRACKNUMBER=%n" -T "GENRE=%m" -T "COMMENT=%e" %s -o %d
TOC извлечённого CD
Трек | Старт | Длительность | Начальный сектор | Конечный сектор
---------------------------------------------------------------------
1 | 0:00.00 | 16:20.02 | 0 | 73501
2 | 16:20.02 | 3:27.50 | 73502 | 89076
3 | 19:47.52 | 14:50.13 | 89077 | 155839
Характеристики диапазона извлечения и сообщения об ошибках
Выбранный диапазон
Имя файла G:\1-RAB\Pharoah Sanders-Tauhid\Pharoah Sanders - Tauhid.wav
Пиковый уровень 90.7 %
Качество диапазона 100.0 %
CRC теста 7A8251A9
CRC копии 7A8251A9
Копирование... OK
Ошибок не произошло
AccurateRip: сводка
Трек 1 нет в базе данных
Трек 2 нет в базе данных
Трек 3 нет в базе данных
Ни одного трека нет в базе AccurateRip
Конец отчёта
 
Tau Analyzer
По всем вопросам пишите личное сообщение пользователю M0p94ok.
18:50
206
Нет комментариев. Ваш будет первым!