Вы используете незарегистрированную версию компонента "Вкладки"!

Поиск

(Avant-Garde, Free Jazz) Pharoah Sanders - Izipho Zam - 1993, APE (image+.cue), lossless

(Avant-Garde, Free Jazz) Pharoah Sanders - Izipho Zam - 1993, APE (image+.cue), lossless
Треклист:
Pharoah Sanders - Izipho Zam
Жанр: Avant-Garde, Free Jazz
Год выпуска диска: 1993
Производитель диска: Beliaphon, Germany (660-51-018)
Аудио кодек: APE
Тип рипа: image+.cue
Битрейт аудио: lossless
Продолжительность: 49:28
Трэклист:
Prince Of Peace
Balance
Izipho Zam
Recorded in Jan 1969, released on this label in 1973.
Доп. информация: Bass - Cecil McBee , Sirone
Drums - Billy Hart , Majid Shabazz
Guitar - Sonny Sharrock
Percussion - Nat Bettis , Tony Wylie
Percussion [African Drums] - Chief Bey
Piano - Lonnie Liston Smith
Saxophone [Alto] - Sonny Fortune
Saxophone, Percussion - Pharoah Sanders
Tuba - Howard Johnson (3)
Vocals, Percussion - Leon Thomas
 
EAC-LOG
Exact Audio Copy V0.99 prebeta 4 from 23. January 2008
Отчёт EAC об извлечении, выполненном 14. февраля 2010, 0:46
Pharoah Sanders / Izipho Zam
Дисковод: TSSTcorpCDDVDW SH-S203D Adapter: 3 ID: 0
Режим чтения : Достоверность
Использование точного потока : Да
Отключение кэша аудио : Да
Использование указателей C2 : Нет
Коррекция смещения при чтении : 6
Способность читать области Lead-in и Lead-out : Нет
Заполнение пропущенных сэмплов тишиной : Да
Удаление блоков с тишиной в начале и конце : Нет
При вычислениях CRC использовались нулевые сэмплы : Да
Интерфейс : Установленный внешний ASPI-интерфейс
Выходной формат : Внутренние WAV-операции
Формат сэмплов : 44.100 Гц; 16 бит; стерео
TOC извлечённого CD
Трек | Старт | Длительность | Начальный сектор | Конечный сектор
---------------------------------------------------------------------
1 | 0:00.00 | 8:52.63 | 0 | 39962
2 | 8:52.63 | 12:44.02 | 39963 | 97264
3 | 21:36.65 | 28:51.70 | 97265 | 227159
Характеристики диапазона извлечения и сообщения об ошибках
Выбранный диапазон
Имя файла E:\FOS\MISIC\SANDERS Ph\Pharoah Sanders - Izipho Zam\Pharoah Sanders - Izipho Zam.wav
Пиковый уровень 100.0 %
Качество диапазона 100.0 %
CRC копии ECECB469
Копирование... OK
Ошибок не произошло
Конец отчёта
Any questions -> support@pro-jazz.com. По всем вопросам пишите -> support@pro-jazz.com
18:54
137
Нет комментариев. Ваш будет первым!