Вы используете незарегистрированную версию компонента "Вкладки"!

Поиск

(Avant-Garde, Free Jazz, Modern, Piano) Yosuke Yamashita (w. Cecil McBee, Pheeroan akLaff) - Sakura {Antilles 422-849 141-2, USA} - 1990, APE (image+.cue) lossless

(Avant-Garde, Free Jazz, Modern, Piano) Yosuke Yamashita (w. Cecil McBee, Pheeroan akLaff) - Sakura {Antilles 422-849 141-2, USA} - 1990, APE (image+.cue) lossless
Треклист:
Yosuke Yamashita (w. Cecil McBee, Pheeroan akLaff) - Sakura (Cherry)
Жанр: Avant-Garde, Free Jazz, Modern, Piano
Страна-производитель диска: USA
Год издания диска: 1990
Издатель (лейбл): Antilles
Номер по каталогу: 422-849 141-2
Аудио кодек: APE (*.ape)
Тип рипа: image+.cue
Битрейт аудио: lossless
Продолжительность: 01:01:47
Источник (релизер): barin99
Наличие сканов в содержимом раздачи: да
Треклист:
01. Sakura 5:04
02. Yurikago 4:27
03. Haiku 2:16
04. Amefuri 6:11
05. Ano Machi 7:17
06. Dobarada 5:36
07. Tanabata 4:44
08. Sunayama 9:18
09. Tsuki No Sabuku 6:37
10. Usagi No Dance 6:27
11. Nenkorori 3:46
Recorded at Clinton Recording Studios N.Y. on May 1, 2 & 3, 1990
Yosuke Yamashita — Piano
Cecil McBee — Bass
Pheeroan akLaff — Drums
 
Лог создания рипа (EAC Log)
Exact Audio Copy V1.0 beta 1 from 15. November 2010
EAC extraction logfile from 6. February 2011, 19:56
Yosuke Yamashita / Sakura
Used drive : TSSTcorpDVD+-RW TS-L532B Adapter: 1 ID: 0
Read mode : Secure
Utilize accurate stream : Yes
Defeat audio cache : Yes
Make use of C2 pointers : No
Read offset correction : 704
Overread into Lead-In and Lead-Out : No
Fill up missing offset samples with silence : Yes
Delete leading and trailing silent blocks : No
Null samples used in CRC calculations : Yes
Used interface : Native Win32 interface for Win NT & 2000
Used output format : Internal WAV Routines
Sample format : 44.100 Hz; 16 Bit; Stereo
TOC of the extracted CD
Track | Start | Length | Start sector | End sector
---------------------------------------------------------
1 | 0:00.32 | 5:04.13 | 32 | 22844
2 | 5:04.45 | 4:27.50 | 22845 | 42919
3 | 9:32.20 | 2:16.00 | 42920 | 53119
4 | 11:48.20 | 6:11.35 | 53120 | 80979
5 | 17:59.55 | 7:17.40 | 80980 | 113794
6 | 25:17.20 | 5:36.37 | 113795 | 139031
7 | 30:53.57 | 4:44.50 | 139032 | 160381
8 | 35:38.32 | 9:18.00 | 160382 | 202231
9 | 44:56.32 | 6:37.00 | 202232 | 232006
10 | 51:33.32 | 6:27.53 | 232007 | 261084
11 | 58:01.10 | 3:46.35 | 261085 | 278069
Range status and errors
Selected range
Filename C:\Documents and Settings\VB\My Documents\BARIN99\Yosuke Yamashita - Sakura\Yosuke Yamashita - Sakura.wav
Peak level 100.0 %
Extraction speed 0.2 X
Range quality 100.0 %
Copy CRC A5EF91CA
Copy OK
No errors occurred
AccurateRip summary
Track 1 accurately ripped (confidence 2) [141251BA]
Track 2 accurately ripped (confidence 2) [9D13CE70]
Track 3 accurately ripped (confidence 2) [BE3C7D13]
Track 4 accurately ripped (confidence 2) [84ADA98A]
Track 5 accurately ripped (confidence 2) [56728907]
Track 6 accurately ripped (confidence 2) [7FD13C2D]
Track 7 accurately ripped (confidence 2) [A1FFE2A2]
Track 8 accurately ripped (confidence 2) [1C3C5F6B]
Track 9 accurately ripped (confidence 2) [D2322385]
Track 10 accurately ripped (confidence 2) [00781ADF]
Track 11 accurately ripped (confidence 2) [D8488F7E]
All tracks accurately ripped
End of status report
 
Содержание индексной карты (.CUE)
REM GENRE Jazz
REM DATE 1990
REM DISCID 930E7B0B
REM COMMENT "ExactAudioCopy v1.0b1"
PERFORMER "Yosuke Yamashita"
TITLE "Sakura"
FILE "Yosuke Yamashita - Sakura.ape" WAVE
TRACK 01 AUDIO
TITLE "Sakura"
PERFORMER "Yosuke Yamashita"
INDEX 00 00:00:00
INDEX 01 00:00:32
TRACK 02 AUDIO
TITLE "Yurikago"
PERFORMER "Yosuke Yamashita"
INDEX 01 05:04:45
TRACK 03 AUDIO
TITLE "Haiku"
PERFORMER "Yosuke Yamashita"
INDEX 01 09:32:20
TRACK 04 AUDIO
TITLE "Amefuri"
PERFORMER "Yosuke Yamashita"
INDEX 00 11:47:40
INDEX 01 11:48:20
TRACK 05 AUDIO
TITLE "Ano Machi"
PERFORMER "Yosuke Yamashita"
INDEX 01 17:59:55
TRACK 06 AUDIO
TITLE "Dobarada"
PERFORMER "Yosuke Yamashita"
INDEX 01 25:17:20
TRACK 07 AUDIO
TITLE "Tanabata"
PERFORMER "Yosuke Yamashita"
INDEX 01 30:53:57
TRACK 08 AUDIO
TITLE "Sunayama"
PERFORMER "Yosuke Yamashita"
INDEX 00 35:37:35
INDEX 01 35:38:32
TRACK 09 AUDIO
TITLE "Tsuki No Sabaku"
PERFORMER "Yosuke Yamashita"
INDEX 00 44:55:50
INDEX 01 44:56:32
TRACK 10 AUDIO
TITLE "Usagi No Dance"
PERFORMER "Yosuke Yamashita"
INDEX 01 51:33:32
TRACK 11 AUDIO
TITLE "Nenkorori"
PERFORMER "Yosuke Yamashita"
INDEX 00 58:00:50
INDEX 01 58:01:10
 
Japan Times
Yosuke Yamashita is one of the rare Japanese jazz musicians who is a household name in his native land. Despite his uncompromisingly avant-garde style, he is also one of the few to establish himself as a well-respected jazz pianist in Europe and the United States.
After riding the crest of the 1970s' free jazz movement, Yamashita has performed all over the world, releasing nearly 50 recordings and playing on countless others. Not content with Tokyo, he went to New York in the '80s and quickly became recognized for his powerful keyboard attack and innovative musical ideas.
Since then, he has toured and recorded in Europe, the United States and Japan, and shows no signs of letting up.
Yamashita's playing style is highly distinctive. At times, he plays the piano like a percussion instrument -- banging the keys with his forearms and hammering out fistfuls of passionate noise. In addition to free jazz, Yamashita -- who often plays with musicians who were not even born when he first gained attention -- is one of the few jazz musicians to incorporate Japanese elements into his music, with a deep feeling for improvising while respecting the original forms.
From the release of 1990's "Sakura," a wonderful modern jazz take on traditional Japanese melodies, to this year's "Ken-Kon" DVD with taiko drum master Eitetsu Hayashi, the blending of cross-cultural elements has been an important theme in his work.
If he is proud of all this, it doesn't show. Dressed in his trademark white shirt and brightly colored vest, Yamashita has a disarmingly humble manner. He was happy to chat away after sinking into the chair of a coffee shop in Shibuya's Cerulean Tower complex, downstairs from jazz club JZ Brat, where he would be performing that evening with a group of twentysomething musicians. ~Michael Pronko, Japan Times, Sept. 7, 2003
Tracks:
01 - Sakura (Traditional)
02 - Yurikago (Kitahara, Kusakawa)
03 - Haiku (Yamashita)
04 - Amefuri (Nakayama, Noguchi)
05 - Ano Machi (Nakayama, Noguchi)
06 - Dobarada (Yamashita)
07 - Tanabata (Gondo, Hayashi, Shimousa)
08 - Sunayama (Kitahara, Nakayama)
09 - Tsuki No Sabuku (Kato, Sasaki)
10 - Usagi No Dance (Nakayama, Noguchi
11 - Nenkorori (Yamada)
 
AMG
"Yamashita studied piano as a child and has played professionally since the age of 17. He attended Kunitachi College of Music in Tokyo from 1962-1967 and played for a time with saxophonist Sadao Watanabe. Yamashita formed a bassless trio in 1969; his Bill Evans-influenced style expanded to include free jazz, a rather radical step given the conservatism of the Japanese jazz scene at the time. Beginning in the '70s, his trio toured widely and played many major European events, including the Berlin and Montreux jazz festivals. Yamashita's U.S. debut was at the 1979 Newport Jazz Festival; he also recorded with members of the Art Ensemble of Chicago around that time. In the '80s, Yamashita began playing frequent solo concerts. He also branched out stylistically, playing with Japanese and Korean percussionists and incorporating adaptations of classical works into his repertoire. Yamashita has worked with many internationally famous artists, including Max Roach, Elvin Jones, Bill Laswell, Mal Waldron, and Lester Bowie. In 1985, he made the first of what would come to be annual appearances at Sweet Basil night club in New York. He formed an 'American' trio with bassist Cecil McBee and drummer Pheeroan akLaff; the group became his primary performing unit when in the States. In the '90s, Yamashita recorded several albums for Verve; in 1994, he played solo at the label's 50th anniversary concert at Carnegie Hall. Yamashita has recorded more than 40 albums. He's also an accomplished essayist, having written several books."
Any questions -> support@pro-jazz.com. По всем вопросам пишите -> support@pro-jazz.com
15:09
272
Нет комментариев. Ваш будет первым!