Вы используете незарегистрированную версию компонента "Вкладки"!

Поиск

(Avant-Garde / Free Jazz) Matana Roberts Quartet - The Calling - 2006, FLAC (image+.cue) lossless

(Avant-Garde / Free Jazz) Matana Roberts Quartet - The Calling - 2006, FLAC (image+.cue) lossless
Треклист:
Matana Roberts Quartet - The Calling

Жанр: Avant-Garde / Free Jazz
Страна-производитель диска: USA
Год издания диска: 2006
Издатель (лейбл): Utech Records 030
Аудио кодек: FLAC (*.flac)
Тип рипа: image+.cue
Битрейт аудио: lossless
Продолжительность: 1:08:13
Источник (релизер): собственный рип
Наличие сканов в содержимом раздачи: нет
Matana Roberts: alto saxophone, clarinet
Taylor Ho Bynum: cornet
Thomson Kneeland: bass
Tomas Fujiwara: drums, percussion
1. The Calling
2. 1863
3. My Man
4, We Travel the Spaceways
5. Great Migration
6. Do You Know What It Means to Miss New Orleans
 
Лог создания рипа
Exact Audio Copy V0.99 prebeta 5 from 4. May 2009
EAC extraction logfile from 31. March 2010, 23:21
Matana Roberts Quartet / The Calling
Used drive : hp DVD-RAM GH40L Adapter: 0 ID: 1
Read mode : Secure
Utilize accurate stream : Yes
Defeat audio cache : Yes
Make use of C2 pointers : No
Read offset correction : 667
Overread into Lead-In and Lead-Out : No
Fill up missing offset samples with silence : Yes
Delete leading and trailing silent blocks : No
Null samples used in CRC calculations : Yes
Used interface : Installed external ASPI interface
Used output format : User Defined Encoder
Selected bitrate : 1024 kBit/s
Quality : High
Add ID3 tag : No
Command line compressor : C:\Program Files\Exact Audio Copy\Flac\flac.exe
Additional command line options : -6 -V -T "ARTIST=%a" -T "TITLE=%t" -T "ALBUM=%g" -T "DATE=%y" -T "TRACKNUMBER=%n" -T "GENRE=%m" -T "COMMENT=EAC FLAC -6" %s
TOC of the extracted CD
Track | Start | Length | Start sector | End sector
---------------------------------------------------------
1 | 0:00.00 | 13:13.00 | 0 | 59474
2 | 13:13.00 | 5:55.74 | 59475 | 86173
3 | 19:08.74 | 13:32.74 | 86174 | 147147
4 | 32:41.73 | 15:57.69 | 147148 | 218991
5 | 48:39.67 | 10:59.27 | 218992 | 268443
6 | 59:39.19 | 8:33.73 | 268444 | 306991
Range status and errors
Selected range
Filename C:\Users\Igor\Music\eac\Matana Roberts Quartet - The Calling.wav
Peak level 100.0 %
Range quality 100.0 %
Test CRC 1B76D6B0
Copy CRC 1B76D6B0
Copy OK
No errors occurred
AccurateRip summary
Track 1 not present in database
Track 2 not present in database
Track 3 not present in database
Track 4 not present in database
Track 5 not present in database
Track 6 not present in database
None of the tracks are present in the AccurateRip database
End of status report
По всем вопросам пишите личное сообщение пользователю M0p94ok.
05:05
182
Нет комментариев. Ваш будет первым!