Вы используете незарегистрированную версию компонента "Вкладки"!

Поиск

(Avant-Garde / Free Jazz / Jazzland) Ingebrigt Håker Flaten (Haker) Quintet - The Year Of Boar - 2008, FLAC (image+.cue), lossless

(Avant-Garde / Free Jazz / Jazzland) Ingebrigt Håker Flaten (Haker) Quintet - The Year Of Boar - 2008, FLAC (image+.cue), lossless
Треклист:
Ingebrigt Håker Flaten Quintet - The Year Of Boar
Жанр: Avant-Garde / Free Jazz / Jazzland
Год выпуска диска: 2008
Производитель диска: Norway (Jazzland)
Аудио кодек: FLAC
Тип рипа: image+.cue
Битрейт аудио: lossless
Продолжительность: 1:11:01
Dave Rempis alto, tenor and baritone saxophones
Jeff Parker guitar and assorted pedals
Ola Kvernberg violin
Ingebrigt Håker Flaten double bass, electronics
Frank Rosaly drums, electronics
1. Maxwell's Silver Demon
2. Green Wood
3. 90/94
4. Audrey (for Trea Fotidzis)
5. Ceremony (for my mother, Åse Flaten)
6. Prayer (for my father, Ingvald Flaten)
7. George (for George Russell & Bjørnar Andresen)
 
EAC Report
Exact Audio Copy V0.99 prebeta 4 from 23. January 2008
EAC extraction logfile from 30. October 2008, 22:03
Ingebrigt Håker Flaten Quintet / The Year Of Boar
Used drive : TSSTcorpCD/DVDW SH-S182M Adapter: 2 ID: 0
Read mode : Secure
Utilize accurate stream : Yes
Defeat audio cache : Yes
Make use of C2 pointers : No
Read offset correction : 6
Overread into Lead-In and Lead-Out : No
Fill up missing offset samples with silence : Yes
Delete leading and trailing silent blocks : No
Null samples used in CRC calculations : Yes
Used interface : Installed external ASPI interface
Used output format : User Defined Encoder
Selected bitrate : 1024 kBit/s
Quality : High
Add ID3 tag : No
Command line compressor : C:\Program Files\Exact Audio Copy\FLAC\FLAC.EXE
Additional command line options : -6 -V -T "ARTIST=%a" -T "TITLE=%t" -T "ALBUM=%g" -T "DATE=%y" -T "TRACKNUMBER=%n" -T "GENRE=%m" -T "COMMENT=%e" %s -o %d
TOC of the extracted CD
Track | Start | Length | Start sector | End sector
---------------------------------------------------------
1 | 0:00.00 | 12:06.65 | 0 | 54514
2 | 12:06.65 | 12:37.01 | 54515 | 111290
3 | 24:43.66 | 12:22.23 | 111291 | 166963
4 | 37:06.14 | 8:46.15 | 166964 | 206428
5 | 45:52.29 | 8:13.00 | 206429 | 243403
6 | 54:05.29 | 7:51.04 | 243404 | 278732
7 | 61:56.33 | 9:04.56 | 278733 | 319588
Range status and errors
Selected range
Filename C:\z\Ingebrigt Håker Flaten Quintet - The Year Of Boar.wav
Peak level 96.6 %
Range quality 100.0 %
Copy CRC 8ACE8F6F
Copy OK
No errors occurred
AccurateRip summary
Track 1 not present in database
Track 2 not present in database
Track 3 not present in database
Track 4 not present in database
Track 5 not present in database
Track 6 not present in database
Track 7 not present in database
None of the tracks are present in the AccurateRip database
End of status report
Any questions -> support@pro-jazz.com. По всем вопросам пишите -> support@pro-jazz.com
08:37
203
Нет комментариев. Ваш будет первым!