Вы используете незарегистрированную версию компонента "Вкладки"!

Поиск

(Avant Garde, Free Jazz, Experimental, Downtempo) Zoo-Jazz Project - Hivernale Pudeur (Sergey Letov / Сергей Летов, Pascal Rousseau, Ivan Sokolovskiy / Иван Соколовский etc) - 2003, FLAC (image+.cue), lossless

(Avant Garde, Free Jazz, Experimental, Downtempo) Zoo-Jazz Project - Hivernale Pudeur (Sergey Letov / Сергей Летов, Pascal Rousseau, Ivan Sokolovskiy / Иван Соколовский etc) - 2003, FLAC (image+.cue), lossless
Треклист:
Zoo-Jazz Project - Hivernale Pudeur (Sergey Letov / Сергей Летов, Pascal Rousseau, Ivan Sokolovskiy / Иван Соколовский etc)
Жанр: Avant Garde, Free Jazz, Experimental, Downtempo
Год выпуска диска: 2003
Производитель диска: Россия (Exotica Music)
Аудио кодек: FLAC
Тип рипа: image+.cue
Битрейт аудио: lossless
Продолжительность: 63.30
Трэклист:
1. L'Essence Meme De La Musique Electronique Est Lasse
2. Microscopique Predication D'Un Homme-Chat
3. Cesarienne A La Brutus
4. Peur: Cite Olympique
5. Mais Si On Peut Danser Dans La Neige
6. Bourdon Pluvial
Доп. информация: Pascal Rousseau - tuba, improvisations textuelles
Sergey Letov - saxophones, flutes, basses clarinettes, swanee whistle
Ivan Sokolovsky - claviers, grooves programmation
Christophe Sanyas - hautbois
Youri Rubin - percussions
рип собственный
 
eac log
Exact Audio Copy V0.99 prebeta 5 from 4. May 2009
EAC extraction logfile from 15. April 2010, 1:47
Zoo-Jazz Project / Hivernale Pudeur
Used drive : TSSTcorpCDDVDW TS-L633C Adapter: 0 ID: 1
Read mode : Secure
Utilize accurate stream : Yes
Defeat audio cache : Yes
Make use of C2 pointers : No
Read offset correction : 6
Overread into Lead-In and Lead-Out : No
Fill up missing offset samples with silence : Yes
Delete leading and trailing silent blocks : No
Null samples used in CRC calculations : Yes
Used interface : Native Win32 interface for Win NT & 2000
Used output format : User Defined Encoder
Selected bitrate : 768 kBit/s
Quality : High
Add ID3 tag : No
Command line compressor : C:\Program Files (x86)\Exact Audio Copy\Flac\flac.exe
Additional command line options : -8 -V %s
TOC of the extracted CD
Track | Start | Length | Start sector | End sector
---------------------------------------------------------
1 | 0:00.00 | 9:13.22 | 0 | 41496
2 | 9:13.22 | 16:04.38 | 41497 | 113834
3 | 25:17.60 | 6:35.32 | 113835 | 143491
4 | 31:53.17 | 5:14.72 | 143492 | 167113
5 | 37:08.14 | 15:02.40 | 167114 | 234803
6 | 52:10.54 | 11:19.45 | 234804 | 285773
Range status and errors
Selected range
Filename C:\CDs\Zoo-Jazz Project - Hivernale Pudeur\Zoo-Jazz Project - Hivernale Pudeur.wav
Peak level 100.0 %
Range quality 100.0 %
Copy CRC A78067A8
Copy OK
No errors occurred
AccurateRip summary
Track 1 not present in database
Track 2 not present in database
Track 3 not present in database
Track 4 not present in database
Track 5 not present in database
Track 6 not present in database
None of the tracks are present in the AccurateRip database
End of status report
По всем вопросам пишите личное сообщение пользователю M0p94ok.
21:14
206
Нет комментариев. Ваш будет первым!