Вы используете незарегистрированную версию компонента "Вкладки"!

Поиск

(Avant-Garde , Free Jazz) Dominic Duval Quintet - Cries and Whispers - 2001, FLAC (tracks+.cue), lossless

(Avant-Garde , Free Jazz) Dominic Duval Quintet - Cries and Whispers - 2001, FLAC (tracks+.cue), lossless
Треклист:
Dominic Duval Quintet - Cries and Whispers
Жанр: Avant-Garde , Free Jazz
Год выпуска диска: 2001
Производитель диска: USA, Cadence Jazz Records
Аудио кодек: FLAC
Тип рипа: tracks+.cue
Битрейт аудио: lossless
Продолжительность: 63:54
Трэклист:
1. Cries & Whispers I - 13:40
2. Cries & Whispers II - 05:19
3. Cries & Whispers III - 08:13
4. Cries & Whispers IV - 10:57
5. Cries & Whispers V - 09:08
6. Cries & Whispers VI - 10:35
7. Cries & Whispers VII - 05:58
Musicians:
Dominic Duval: Hutchins bass
Joe McPhee: tenor sax, flugelhorn
Mark Whitecage: alto clarinet, alto sax
Jason Hwang: violin
Tomas Ulrich: violin cello
Recorded Aug. 30, 1999 at the Old Office, New York City, NY
Recording engineer: Sascha von Oertzen
Produced by Dominic Duval & Bob Rusch
Produced for Cadence Jazz Records by Bob Rusch
(c)(p) 2001 Cadence Jazz Records - a division of CIMP Ltd.
 
Отчёт EAC
Exact Audio Copy V0.99 prebeta 4 from 23. January 2008
EAC extraction logfile from 7. January 2009, 12:22
Dominic Duval Quintet / Cries and Whispers
Used drive : PLEXTOR DVDR PX-760A Adapter: 0 ID: 0
Read mode : Secure
Utilize accurate stream : Yes
Defeat audio cache : Yes
Make use of C2 pointers : No
Read offset correction : 30
Overread into Lead-In and Lead-Out : Yes
Fill up missing offset samples with silence : Yes
Delete leading and trailing silent blocks : No
Null samples used in CRC calculations : Yes
Used interface : Native Win32 interface for Win NT & 2000
Gap handling : Appended to previous track
Used output format : User Defined Encoder
Selected bitrate : 128 kBit/s
Quality : High
Add ID3 tag : No
Command line compressor : C:\Program Files\FLAC\flac.exe
Additional command line options : -8 -V -T "ARTIST=%a" -T "TITLE=%t" -T "ALBUM=%g" -T "DATE=%y" -T "TRACKNUMBER=%n" -T "GENRE=%m" -T "COMMENT=EAC FLAC -8" %s
TOC of the extracted CD
Track | Start | Length | Start sector | End sector
---------------------------------------------------------
1 | 0:00.00 | 13:40.58 | 0 | 61557
2 | 13:40.58 | 5:19.02 | 61558 | 85484
3 | 18:59.60 | 8:13.60 | 85485 | 122519
4 | 27:13.45 | 10:57.57 | 122520 | 171851
5 | 38:11.27 | 9:08.37 | 171852 | 212988
6 | 47:19.64 | 10:35.20 | 212989 | 260633
7 | 57:55.09 | 5:58.69 | 260634 | 287552
Track 1
Filename J:\Dominic Duval Quintet - Cries and Whispers (2001) [FLAC]\01 - Cries & Whispers I.wav
Pre-gap length 0:00:02.00
Peak level 65.6 %
Track quality 100.0 %
Test CRC B63D9C89
Copy CRC B63D9C89
Track not present in AccurateRip database
Copy OK
Track 2
Filename J:\Dominic Duval Quintet - Cries and Whispers (2001) [FLAC]\02 - Cries & Whispers II.wav
Pre-gap length 0:00:02.57
Peak level 86.1 %
Track quality 100.0 %
Test CRC 779E5873
Copy CRC 779E5873
Track not present in AccurateRip database
Copy OK
Track 3
Filename J:\Dominic Duval Quintet - Cries and Whispers (2001) [FLAC]\03 - Cries & Whispers III.wav
Pre-gap length 0:00:02.57
Peak level 68.5 %
Track quality 99.9 %
Test CRC D0B04B3A
Copy CRC D0B04B3A
Track not present in AccurateRip database
Copy OK
Track 4
Filename J:\Dominic Duval Quintet - Cries and Whispers (2001) [FLAC]\04 - Cries & Whispers IV.wav
Pre-gap length 0:00:02.57
Peak level 77.3 %
Track quality 100.0 %
Test CRC A3C764E0
Copy CRC A3C764E0
Track not present in AccurateRip database
Copy OK
Track 5
Filename J:\Dominic Duval Quintet - Cries and Whispers (2001) [FLAC]\05 - Cries & Whispers V.wav
Pre-gap length 0:00:02.57
Peak level 39.1 %
Track quality 100.0 %
Test CRC 2C7AC5E6
Copy CRC 2C7AC5E6
Track not present in AccurateRip database
Copy OK
Track 6
Filename J:\Dominic Duval Quintet - Cries and Whispers (2001) [FLAC]\06 - Cries & Whispers VI.wav
Pre-gap length 0:00:02.57
Peak level 57.0 %
Track quality 100.0 %
Test CRC AA9D0F4D
Copy CRC AA9D0F4D
Track not present in AccurateRip database
Copy OK
Track 7
Filename J:\Dominic Duval Quintet - Cries and Whispers (2001) [FLAC]\07 - Cries & Whispers VII.wav
Pre-gap length 0:00:02.57
Peak level 72.3 %
Track quality 100.0 %
Test CRC 390BBE3B
Copy CRC 390BBE3B
Track not present in AccurateRip database
Copy OK
None of the tracks are present in the AccurateRip database
No errors occurred
End of status report
Рип оригинального диска. Сканы прилагаются.
За релиз спасибо almouse
 
Мои раздачи на трекере
Вокальное и Хоровое искусства (lossless)
Jah Wobble - Requiem
Mozart - Requiem/Реквием (Dr. Stefan Klimo, Zdenek Kosler), Exultate, jubilate (Klaus Donath); Beethoven - Mass C-dur (Anton Nanut)
Оркестровая (lossless)
Joseph Haydn - Wiedenski klasyk - Trumpet Concerto (Alberto Lizzio) / Symphony No. 94 (Alfred Scholz)/ The Quartet No. 62 (Caspar da Salo)
Зарубежный Джаз (lossless)
George Lewis - Homage to Charles Parker
Marco Benevento - Invisible Baby
Matt Darriau Paradox Trio with Theodosii Spassov - Gambit
Enders Room - Random Guru (Johannes Enders)
Mike Stern - Between the Lines
Jon Eberson - Stash
Sun Ra and His Astro-Infinity Arkestra - Sound Sun Pleasure!!
Kenny Wheeler - Gnu High
Orquesta De Las Nubes - Me Paro Cuando Suena
Orquesta De Las Nubes - El Orden Del Azar
Jazzonia - Little Boy Don't Get Scared
VA - Warsaw Summer Jazz Days 2001 - Nastroj i zgraj zmysly
bILL fRISELL music for the films of bUSTER kEATON Go West
Fred Frith - Speechless
Jonas Hellborg - Adfa (featuring Trilok Gurtu)
Keith Jarrett - Belonging (w. Jan Garbarek)
Jan Garbarek-Bobo Stenson Quartet - Dansere
Jan Garbarek - Places
Shakti with John McLaughlin - Natural Elements (Japan release)
Shakti with John McLaughlin - A Handful of Beauty (Japan release)
Jaco Pastorius - Golden Roads
Mel Lewis and The Jazz Orchestra / Bob Brookmeyer - Live At The Village Vanguard
David Liebman and Richard Beirach - Chant
Louis Sclavis / Dominique Pifarely - Acoustic Quartet
Herbie Hancock - Future 2 Future (Japan bonus track)
Joachim Kühn with Daniel Humair and J. F. Jenny-Clark - Easy to Read
Joachim Kuhn, Mark Nauseef, Tony Newton, Miroslav Tadic - Let's Be Generous
George E. Lewis - Voyager
Christian Muthspiel, Gary Peacock, Wolfgang Muthspiel, Paul Motian
Oregon - Roots in the Sky
Oregon - Winter Light
Nana Vasconcelos, Steve Gorn, Badal Roy, Mike Richmond - Asian Journal
Charles Lloyd / Billy Higgins - Which Way Is East (2 CD)
Jamaaladeen Tacuma - Jukebox
Jamaaladeen Tacuma - Show Stopper
Jamaaladeen Tacuma - Renaissance Man
Edward Vesala Sound & Fury - Nordic Gallery
Original Silence - The Second Original Silence (Mats Gustafsson)
Eartha Kitt - Thinking Jazz
Steven Bernstein - Diaspora Hollywood
Moscow Composers Orchestra - Kings and Cabbages
John Zorn - Filmworks XXIII- el General
Avant-garde, Experimental Metal (lossless)
Praxis - Tennessee 2004
Azonic - Halo (Bill Laswell, Andy Hawkins)
Dub
VA - Axiom Dub: Mysteries of Creation (Bill Laswell)
Indie, Post-Rock & Post-Punk (lossless)
Jah Wobble - The Legend Lives On...Jah Wobbles in ''Betrayal"
Progressive & Art-Rock (lossless)
The Golden Palominos - A Dead Horse
Западноевропейский фолк (lossless)
Lena Willemark & Ale Möller - Nordan
Джаз и Блюз (DVD Video)
Dave Liebman - Sketches of Spain
Michel Portal - Jazz à Vienne
Джаз и Блюз (Видео)
Louis Sclavis Quintet "Lost On the Way" - Europa Jazz Festival
Арт-хаус и авторское кино (DVD, HD Video)
Коротко и со вкусом II - Ты и я / Kurz und gut II - Du und Ich
Коротко и со вкусом II - Близко и далеко / Kurz und gut II - Nach und fern
Коротко и со вкусом II - Стар и млад / Kurz und Gut II - Jung und Alt
Коротко и со вкусом II - Уйти или остаться / Kurz und gut II - Abhaun oder dableiben
Any questions -> support@pro-jazz.com. По всем вопросам пишите -> support@pro-jazz.com
16:38
182
Нет комментариев. Ваш будет первым!