Вы используете незарегистрированную версию компонента "Вкладки"!

Поиск

(Avant-Garde, Free Jazz, Contemporary Jazz) [CD] Carsten Dahl Experience - Metamorphosis - 2011, FLAC (tracks+.cue), lossless

(Avant-Garde, Free Jazz, Contemporary Jazz) [CD] Carsten Dahl Experience - Metamorphosis - 2011, FLAC (tracks+.cue), lossless
Треклист:
Carsten Dahl Experience - Metamorphosis
Жанр: Avant-Garde, Free Jazz, Contemporary Jazz
Носитель: CD
Страна-производитель диска (релиза): Denmark
Год издания: 2011
Издатель (лейбл): Storyville Records
Номер по каталогу: 1014272
Страна исполнителя (группы): Denmark
Аудиокодек: FLAC (*.flac)
Тип рипа: tracks+.cue
Битрейт аудио: lossless
Продолжительность: 52:09
Источник (релизер): what.cd (xroomie)
Наличие сканов в содержимом раздачи: нет
Треклист:
01. Bosses Song (06:08)
02. Metamorphosis 1 (01:23)
03. Sing, Sing Loud (02:46)
04. Nariman's Mood (07:53)
05. Metamorphosis 2 (03:10)
06. Metamorphosis 3 (01:24)
07. Abelone, Wo Bist Du? (05:27)
08. Turkis Butterfly (03:06)
09. Purple Wings (04:36)
10. Abelone, Wo Bist Du .. Noch Einmal? (01:33)
11. Balinesian Dance (09:53)
12. Klokke (04:50)
 
Лог создания рипа
X Lossless Decoder version 20141129 (148.1)
XLD extraction logfile from 2015-04-15 19:04:42 +0200
Carsten Dahl Experience / Metamorphosis
Used drive : MATSHITA DVD-R UJ-898 (revision HE13)
Media type : Pressed CD
Ripper mode : XLD Secure Ripper
Disable audio cache : OK for the drive with a cache less than 1375KiB
Make use of C2 pointers : NO
Read offset correction : 102
Max retry count : 20
Gap status : Analyzed, Appended
TOC of the extracted CD
Track | Start | Length | Start sector | End sector
---------------------------------------------------------
1 | 00:00:00 | 06:08:14 | 0 | 27613
2 | 06:08:14 | 01:21:62 | 27614 | 33750
3 | 07:30:01 | 02:48:02 | 33751 | 46352
4 | 10:18:03 | 07:54:36 | 46353 | 81938
5 | 18:12:39 | 03:11:43 | 81939 | 96306
6 | 21:24:07 | 01:25:70 | 96307 | 102751
7 | 22:50:02 | 05:29:39 | 102752 | 127465
8 | 28:19:41 | 03:09:00 | 127466 | 141640
9 | 31:28:41 | 04:37:01 | 141641 | 162416
10 | 36:05:42 | 01:34:15 | 162417 | 169481
11 | 37:39:57 | 09:54:21 | 169482 | 214052
12 | 47:34:03 | 04:50:48 | 214053 | 235850
AccurateRip Summary (DiscID: 0015f78a-00cd7afb-960c480c)
Track 01 : OK (v1+v2, confidence 5/5)
Track 02 : OK (v1+v2, confidence 5/5)
Track 03 : OK (v1+v2, confidence 5/5)
Track 04 : OK (v1+v2, confidence 5/5)
Track 05 : OK (v1+v2, confidence 5/5)
Track 06 : OK (v1+v2, confidence 5/5)
Track 07 : OK (v1+v2, confidence 5/5)
Track 08 : OK (v1+v2, confidence 5/5)
Track 09 : OK (v1+v2, confidence 5/5)
Track 10 : OK (v1+v2, confidence 4/4)
Track 11 : OK (v1+v2, confidence 5/5)
Track 12 : OK (v1+v2, confidence 4/4)
->All tracks accurately ripped.
All Tracks
Album gain : -1.21 dB
Peak : 1.000000
Statistics
Read error : 0
Jitter error (maybe fixed) : 0
Retry sector count : 0
Damaged sector count : 0
Track 01
Filename : /Volumes/UN-2015/! 2015 Rip/! Artists/Carsten Dahl Experience - [2011] - Metamorphosis (FLAC (level 8))/01 - Carsten Dahl Experience - Bosses Song.flac
/Volumes/UN-2015/! 2015 Rip/! Artists/Carsten Dahl Experience - [2011] - Metamorphosis (LAME MP3 (VBR-new quality 0.0))/01 - Carsten Dahl Experience - Bosses Song.mp3
/Volumes/UN-2015/! 2015 Rip/! Artists/Carsten Dahl Experience - [2011] - Metamorphosis (LAME MP3 (CBR 320kbps))/01 - Carsten Dahl Experience - Bosses Song.mp3
Pre-gap length : 00:02:00
Track gain : 0.19 dB
Peak : 0.936920
CRC32 hash (test run) : 69DBBA05
CRC32 hash : 69DBBA05
CRC32 hash (skip zero) : 2934BFF0
AccurateRip v1 signature : 00BEEB66
AccurateRip v2 signature : 855D2223
->Accurately ripped (v1+v2, confidence 3+2/5)
Statistics
Read error : 0
Jitter error (maybe fixed) : 0
Retry sector count : 0
Damaged sector count : 0
Track 02
Filename : /Volumes/UN-2015/! 2015 Rip/! Artists/Carsten Dahl Experience - [2011] - Metamorphosis (FLAC (level 8))/02 - Carsten Dahl Experience - Metamorphosis 1.flac
/Volumes/UN-2015/! 2015 Rip/! Artists/Carsten Dahl Experience - [2011] - Metamorphosis (LAME MP3 (VBR-new quality 0.0))/02 - Carsten Dahl Experience - Metamorphosis 1.mp3
/Volumes/UN-2015/! 2015 Rip/! Artists/Carsten Dahl Experience - [2011] - Metamorphosis (LAME MP3 (CBR 320kbps))/02 - Carsten Dahl Experience - Metamorphosis 1.mp3
Pre-gap length : 00:01:33
Track gain : 1.62 dB
Peak : 0.983887
CRC32 hash (test run) : A40D3FEB
CRC32 hash : A40D3FEB
CRC32 hash (skip zero) : EF31E2CC
AccurateRip v1 signature : 2048821B
AccurateRip v2 signature : 58A299BA
->Accurately ripped (v1+v2, confidence 3+2/5)
Statistics
Read error : 0
Jitter error (maybe fixed) : 0
Retry sector count : 0
Damaged sector count : 0
Track 03
Filename : /Volumes/UN-2015/! 2015 Rip/! Artists/Carsten Dahl Experience - [2011] - Metamorphosis (FLAC (level 8))/03 - Carsten Dahl Experience - Sing, Sing Loud.flac
/Volumes/UN-2015/! 2015 Rip/! Artists/Carsten Dahl Experience - [2011] - Metamorphosis (LAME MP3 (VBR-new quality 0.0))/03 - Carsten Dahl Experience - Sing, Sing Loud.mp3
/Volumes/UN-2015/! 2015 Rip/! Artists/Carsten Dahl Experience - [2011] - Metamorphosis (LAME MP3 (CBR 320kbps))/03 - Carsten Dahl Experience - Sing, Sing Loud.mp3
Track gain : -2.89 dB
Peak : 1.000000
CRC32 hash (test run) : D33016A8
CRC32 hash : D33016A8
CRC32 hash (skip zero) : 7999FE06
AccurateRip v1 signature : 533C4B20
AccurateRip v2 signature : E1BB6210
->Accurately ripped (v1+v2, confidence 3+2/5)
Statistics
Read error : 0
Jitter error (maybe fixed) : 0
Retry sector count : 0
Damaged sector count : 0
Track 04
Filename : /Volumes/UN-2015/! 2015 Rip/! Artists/Carsten Dahl Experience - [2011] - Metamorphosis (FLAC (level 8))/04 - Carsten Dahl Experience - Nariman's Mood.flac
/Volumes/UN-2015/! 2015 Rip/! Artists/Carsten Dahl Experience - [2011] - Metamorphosis (LAME MP3 (VBR-new quality 0.0))/04 - Carsten Dahl Experience - Nariman's Mood.mp3
/Volumes/UN-2015/! 2015 Rip/! Artists/Carsten Dahl Experience - [2011] - Metamorphosis (LAME MP3 (CBR 320kbps))/04 - Carsten Dahl Experience - Nariman's Mood.mp3
Pre-gap length : 00:02:57
Track gain : -1.39 dB
Peak : 0.999969
CRC32 hash (test run) : F50D7A3B
CRC32 hash : F50D7A3B
CRC32 hash (skip zero) : 13FBBF88
AccurateRip v1 signature : E155B5E0
AccurateRip v2 signature : E2941339
->Accurately ripped (v1+v2, confidence 3+2/5)
Statistics
Read error : 0
Jitter error (maybe fixed) : 0
Retry sector count : 0
Damaged sector count : 0
Track 05
Filename : /Volumes/UN-2015/! 2015 Rip/! Artists/Carsten Dahl Experience - [2011] - Metamorphosis (FLAC (level 8))/05 - Carsten Dahl Experience - Metamorphosis 2.flac
/Volumes/UN-2015/! 2015 Rip/! Artists/Carsten Dahl Experience - [2011] - Metamorphosis (LAME MP3 (VBR-new quality 0.0))/05 - Carsten Dahl Experience - Metamorphosis 2.mp3
/Volumes/UN-2015/! 2015 Rip/! Artists/Carsten Dahl Experience - [2011] - Metamorphosis (LAME MP3 (CBR 320kbps))/05 - Carsten Dahl Experience - Metamorphosis 2.mp3
Pre-gap length : 00:02:45
Track gain : 0.64 dB
Peak : 0.958405
CRC32 hash (test run) : 6976577B
CRC32 hash : 6976577B
CRC32 hash (skip zero) : E27AFD2D
AccurateRip v1 signature : A2DC1B9F
AccurateRip v2 signature : 7FF57011
->Accurately ripped (v1+v2, confidence 3+2/5)
Statistics
Read error : 0
Jitter error (maybe fixed) : 0
Retry sector count : 0
Damaged sector count : 0
Track 06
Filename : /Volumes/UN-2015/! 2015 Rip/! Artists/Carsten Dahl Experience - [2011] - Metamorphosis (FLAC (level 8))/06 - Carsten Dahl Experience - Metamorphosis 3.flac
/Volumes/UN-2015/! 2015 Rip/! Artists/Carsten Dahl Experience - [2011] - Metamorphosis (LAME MP3 (VBR-new quality 0.0))/06 - Carsten Dahl Experience - Metamorphosis 3.mp3
/Volumes/UN-2015/! 2015 Rip/! Artists/Carsten Dahl Experience - [2011] - Metamorphosis (LAME MP3 (CBR 320kbps))/06 - Carsten Dahl Experience - Metamorphosis 3.mp3
Pre-gap length : 00:03:04
Track gain : 1.12 dB
Peak : 0.993317
CRC32 hash (test run) : 3E86862F
CRC32 hash : 3E86862F
CRC32 hash (skip zero) : A6D192B1
AccurateRip v1 signature : B2DF1291
AccurateRip v2 signature : 4D5FBA59
->Accurately ripped (v1+v2, confidence 3+2/5)
Statistics
Read error : 0
Jitter error (maybe fixed) : 0
Retry sector count : 0
Damaged sector count : 0
Track 07
Filename : /Volumes/UN-2015/! 2015 Rip/! Artists/Carsten Dahl Experience - [2011] - Metamorphosis (FLAC (level 8))/07 - Carsten Dahl Experience - Abelone, Wo Bist Du.flac
/Volumes/UN-2015/! 2015 Rip/! Artists/Carsten Dahl Experience - [2011] - Metamorphosis (LAME MP3 (VBR-new quality 0.0))/07 - Carsten Dahl Experience - Abelone, Wo Bist Du.mp3
/Volumes/UN-2015/! 2015 Rip/! Artists/Carsten Dahl Experience - [2011] - Metamorphosis (LAME MP3 (CBR 320kbps))/07 - Carsten Dahl Experience - Abelone, Wo Bist Du.mp3
Pre-gap length : 00:03:13
Track gain : -2.25 dB
Peak : 0.988434
CRC32 hash (test run) : CB598AE3
CRC32 hash : CB598AE3
CRC32 hash (skip zero) : A5F526B5
AccurateRip v1 signature : 4B7AFDBB
AccurateRip v2 signature : 46C2782B
->Accurately ripped (v1+v2, confidence 3+2/5)
Statistics
Read error : 0
Jitter error (maybe fixed) : 0
Retry sector count : 0
Damaged sector count : 0
Track 08
Filename : /Volumes/UN-2015/! 2015 Rip/! Artists/Carsten Dahl Experience - [2011] - Metamorphosis (FLAC (level 8))/08 - Carsten Dahl Experience - Turkis Butterfly.flac
/Volumes/UN-2015/! 2015 Rip/! Artists/Carsten Dahl Experience - [2011] - Metamorphosis (LAME MP3 (VBR-new quality 0.0))/08 - Carsten Dahl Experience - Turkis Butterfly.mp3
/Volumes/UN-2015/! 2015 Rip/! Artists/Carsten Dahl Experience - [2011] - Metamorphosis (LAME MP3 (CBR 320kbps))/08 - Carsten Dahl Experience - Turkis Butterfly.mp3
Pre-gap length : 00:04:01
Track gain : 1.64 dB
Peak : 0.806366
CRC32 hash (test run) : 8598241D
CRC32 hash : 8598241D
CRC32 hash (skip zero) : 7C4E3AAB
AccurateRip v1 signature : D76CBEFD
AccurateRip v2 signature : C88EADA4
->Accurately ripped (v1+v2, confidence 3+2/5)
Statistics
Read error : 0
Jitter error (maybe fixed) : 0
Retry sector count : 0
Damaged sector count : 0
Track 09
Filename : /Volumes/UN-2015/! 2015 Rip/! Artists/Carsten Dahl Experience - [2011] - Metamorphosis (FLAC (level 8))/09 - Carsten Dahl Experience - Purple Wings.flac
/Volumes/UN-2015/! 2015 Rip/! Artists/Carsten Dahl Experience - [2011] - Metamorphosis (LAME MP3 (VBR-new quality 0.0))/09 - Carsten Dahl Experience - Purple Wings.mp3
/Volumes/UN-2015/! 2015 Rip/! Artists/Carsten Dahl Experience - [2011] - Metamorphosis (LAME MP3 (CBR 320kbps))/09 - Carsten Dahl Experience - Purple Wings.mp3
Pre-gap length : 00:04:45
Track gain : 0.45 dB
Peak : 0.946136
CRC32 hash (test run) : 70B1CF49
CRC32 hash : 70B1CF49
CRC32 hash (skip zero) : 64B710E3
AccurateRip v1 signature : 06C65D54
AccurateRip v2 signature : 6523C65E
->Accurately ripped (v1+v2, confidence 3+2/5)
Statistics
Read error : 0
Jitter error (maybe fixed) : 0
Retry sector count : 0
Damaged sector count : 0
Track 10
Filename : /Volumes/UN-2015/! 2015 Rip/! Artists/Carsten Dahl Experience - [2011] - Metamorphosis (FLAC (level 8))/10 - Carsten Dahl Experience - Abelone, Wo Bist Du…Noch Einmal.flac
/Volumes/UN-2015/! 2015 Rip/! Artists/Carsten Dahl Experience - [2011] - Metamorphosis (LAME MP3 (VBR-new quality 0.0))/10 - Carsten Dahl Experience - Abelone, Wo Bist Du…Noch Einmal.mp3
/Volumes/UN-2015/! 2015 Rip/! Artists/Carsten Dahl Experience - [2011] - Metamorphosis (LAME MP3 (CBR 320kbps))/10 - Carsten Dahl Experience - Abelone, Wo Bist Du…Noch Einmal.mp3
Pre-gap length : 00:02:04
Track gain : 0.00 dB
Peak : 0.783295
CRC32 hash (test run) : D2B2C8D3
CRC32 hash : D2B2C8D3
CRC32 hash (skip zero) : EC1EF603
AccurateRip v1 signature : 0366A539
AccurateRip v2 signature : 4EC1E020
->Accurately ripped (v1+v2, confidence 2+2/4)
Statistics
Read error : 0
Jitter error (maybe fixed) : 0
Retry sector count : 0
Damaged sector count : 0
Track 11
Filename : /Volumes/UN-2015/! 2015 Rip/! Artists/Carsten Dahl Experience - [2011] - Metamorphosis (FLAC (level 8))/11 - Carsten Dahl Experience - Balinesian Dance.flac
/Volumes/UN-2015/! 2015 Rip/! Artists/Carsten Dahl Experience - [2011] - Metamorphosis (LAME MP3 (VBR-new quality 0.0))/11 - Carsten Dahl Experience - Balinesian Dance.mp3
/Volumes/UN-2015/! 2015 Rip/! Artists/Carsten Dahl Experience - [2011] - Metamorphosis (LAME MP3 (CBR 320kbps))/11 - Carsten Dahl Experience - Balinesian Dance.mp3
Pre-gap length : 00:03:01
Track gain : 1.51 dB
Peak : 0.987000
CRC32 hash (test run) : C3ADA130
CRC32 hash : C3ADA130
CRC32 hash (skip zero) : 0DE80F20
AccurateRip v1 signature : D0F0728F
AccurateRip v2 signature : 95963107
->Accurately ripped (v1+v2, confidence 3+2/5)
Statistics
Read error : 0
Jitter error (maybe fixed) : 0
Retry sector count : 0
Damaged sector count : 0
Track 12
Filename : /Volumes/UN-2015/! 2015 Rip/! Artists/Carsten Dahl Experience - [2011] - Metamorphosis (FLAC (level 8))/12 - Carsten Dahl Experience - Klokke.flac
/Volumes/UN-2015/! 2015 Rip/! Artists/Carsten Dahl Experience - [2011] - Metamorphosis (LAME MP3 (VBR-new quality 0.0))/12 - Carsten Dahl Experience - Klokke.mp3
/Volumes/UN-2015/! 2015 Rip/! Artists/Carsten Dahl Experience - [2011] - Metamorphosis (LAME MP3 (CBR 320kbps))/12 - Carsten Dahl Experience - Klokke.mp3
Pre-gap length : 00:02:74
Track gain : -0.99 dB
Peak : 0.779449
CRC32 hash (test run) : 2C2C4694
CRC32 hash : 2C2C4694
CRC32 hash (skip zero) : D22D4ED2
AccurateRip v1 signature : 5E0053D3
AccurateRip v2 signature : 69D1B9BA
->Accurately ripped (v1+v2, confidence 2+2/4)
Statistics
Read error : 0
Jitter error (maybe fixed) : 0
Retry sector count : 0
Damaged sector count : 0
No errors occurred
End of status report
-----BEGIN XLD SIGNATURE-----
w.KOsPIts6eLS_Ugtw9KWL5OXArpMh72vyLpki3GVC7nyf78VMZtSj6wpX.FmyiIFeSkS_cAL38yYQ706UaU.JHhfN._i5gaMz3xpMS
-----END XLD SIGNATURE-----
 
Содержание индексной карты (.CUE)
TITLE "Metamorphosis"
PERFORMER "Carsten Dahl Experience"
REM GENRE "Jazz"
REM DATE "2011"
REM DISCNUMBER 1
REM TOTALDISCS 1
REM DISCID 960C480C
REM REPLAYGAIN_ALBUM_GAIN -1.21 dB
REM REPLAYGAIN_ALBUM_PEAK 1.000000
FILE "01 - Carsten Dahl Experience - Bosses Song.flac" WAVE
TRACK 01 AUDIO
TITLE "Bosses Song"
PERFORMER "Carsten Dahl Experience"
ISRC DKEFA1104401
REM REPLAYGAIN_TRACK_GAIN 0.19 dB
REM REPLAYGAIN_TRACK_PEAK 0.936920
INDEX 01 00:00:00
TRACK 02 AUDIO
TITLE "Metamorphosis 1"
PERFORMER "Carsten Dahl Experience"
ISRC DKEFA1104402
REM REPLAYGAIN_TRACK_GAIN 1.62 dB
REM REPLAYGAIN_TRACK_PEAK 0.983887
INDEX 00 06:06:56
FILE "02 - Carsten Dahl Experience - Metamorphosis 1.flac" WAVE
INDEX 01 00:00:00
FILE "03 - Carsten Dahl Experience - Sing, Sing Loud.flac" WAVE
TRACK 03 AUDIO
TITLE "Sing, Sing Loud"
PERFORMER "Carsten Dahl Experience"
ISRC DKEFA1104403
REM REPLAYGAIN_TRACK_GAIN -2.89 dB
REM REPLAYGAIN_TRACK_PEAK 1.000000
INDEX 01 00:00:00
TRACK 04 AUDIO
TITLE "Nariman's Mood"
PERFORMER "Carsten Dahl Experience"
ISRC DKEFA1104404
REM REPLAYGAIN_TRACK_GAIN -1.39 dB
REM REPLAYGAIN_TRACK_PEAK 0.999969
INDEX 00 02:45:20
FILE "04 - Carsten Dahl Experience - Nariman's Mood.flac" WAVE
INDEX 01 00:00:00
TRACK 05 AUDIO
TITLE "Metamorphosis 2"
PERFORMER "Carsten Dahl Experience"
ISRC DKEFA1104405
REM REPLAYGAIN_TRACK_GAIN 0.64 dB
REM REPLAYGAIN_TRACK_PEAK 0.958405
INDEX 00 07:51:66
FILE "05 - Carsten Dahl Experience - Metamorphosis 2.flac" WAVE
INDEX 01 00:00:00
TRACK 06 AUDIO
TITLE "Metamorphosis 3"
PERFORMER "Carsten Dahl Experience"
ISRC DKEFA1104406
REM REPLAYGAIN_TRACK_GAIN 1.12 dB
REM REPLAYGAIN_TRACK_PEAK 0.993317
INDEX 00 03:08:39
FILE "06 - Carsten Dahl Experience - Metamorphosis 3.flac" WAVE
INDEX 01 00:00:00
TRACK 07 AUDIO
TITLE "Abelone, Wo Bist Du"
PERFORMER "Carsten Dahl Experience"
ISRC DKEFA1104407
REM REPLAYGAIN_TRACK_GAIN -2.25 dB
REM REPLAYGAIN_TRACK_PEAK 0.988434
INDEX 00 01:22:57
FILE "07 - Carsten Dahl Experience - Abelone, Wo Bist Du.flac" WAVE
INDEX 01 00:00:00
TRACK 08 AUDIO
TITLE "Turkis Butterfly"
PERFORMER "Carsten Dahl Experience"
ISRC DKEFA1104408
REM REPLAYGAIN_TRACK_GAIN 1.64 dB
REM REPLAYGAIN_TRACK_PEAK 0.806366
INDEX 00 05:25:38
FILE "08 - Carsten Dahl Experience - Turkis Butterfly.flac" WAVE
INDEX 01 00:00:00
TRACK 09 AUDIO
TITLE "Purple Wings"
PERFORMER "Carsten Dahl Experience"
ISRC DKEFA1104409
REM REPLAYGAIN_TRACK_GAIN 0.45 dB
REM REPLAYGAIN_TRACK_PEAK 0.946136
INDEX 00 03:04:30
FILE "09 - Carsten Dahl Experience - Purple Wings.flac" WAVE
INDEX 01 00:00:00
TRACK 10 AUDIO
TITLE "Abelone, Wo Bist Du…Noch Einmal"
PERFORMER "Carsten Dahl Experience"
ISRC DKEFA1104410
REM REPLAYGAIN_TRACK_GAIN 0.00 dB
REM REPLAYGAIN_TRACK_PEAK 0.783295
INDEX 00 04:34:72
FILE "10 - Carsten Dahl Experience - Abelone, Wo Bist Du…Noch Einmal.flac" WAVE
INDEX 01 00:00:00
TRACK 11 AUDIO
TITLE "Balinesian Dance"
PERFORMER "Carsten Dahl Experience"
ISRC DKEFA1104411
REM REPLAYGAIN_TRACK_GAIN 1.51 dB
REM REPLAYGAIN_TRACK_PEAK 0.987000
INDEX 00 01:31:14
FILE "11 - Carsten Dahl Experience - Balinesian Dance.flac" WAVE
INDEX 01 00:00:00
TRACK 12 AUDIO
TITLE "Klokke"
PERFORMER "Carsten Dahl Experience"
ISRC DKEFA1104412
REM REPLAYGAIN_TRACK_GAIN -0.99 dB
REM REPLAYGAIN_TRACK_PEAK 0.779449
INDEX 00 09:51:22
FILE "12 - Carsten Dahl Experience - Klokke.flac" WAVE
INDEX 01 00:00:00
 
Лог проверки качества
AUDIOCHECKER v2.0 beta (build 457) - by Dester - opdester@freemail.hu
~~~~~~~~~~~~~~~~~~~~~~~~~~~~~~~~~~
-=== DO NOT EDIT THIS FILE! ===-
Path: ...\Carsten Dahl Experience - Metamorphosis (2011) [FLAC]
01 -=- 01 - Carsten Dahl Experience - Bosses Song.flac -=- CDDA (100%)
02 -=- 02 - Carsten Dahl Experience - Metamorphosis 1.flac -=- CDDA (100%)
03 -=- 03 - Carsten Dahl Experience - Sing, Sing Loud.flac -=- CDDA (100%)
04 -=- 04 - Carsten Dahl Experience - Nariman's Mood.flac -=- CDDA (100%)
05 -=- 05 - Carsten Dahl Experience - Metamorphosis 2.flac -=- CDDA (100%)
06 -=- 06 - Carsten Dahl Experience - Metamorphosis 3.flac -=- CDDA (100%)
07 -=- 07 - Carsten Dahl Experience - Abelone, Wo Bist Du.flac -=- CDDA (100%)
08 -=- 08 - Carsten Dahl Experience - Turkis Butterfly.flac -=- CDDA (100%)
09 -=- 09 - Carsten Dahl Experience - Purple Wings.flac -=- CDDA (100%)
10 -=- 10 - Carsten Dahl Experience - Abelone, Wo Bist Du…Noch Einmal.flac -=- CDDA (100%)
11 -=- 11 - Carsten Dahl Experience - Balinesian Dance.flac -=- CDDA (100%)
12 -=- 12 - Carsten Dahl Experience - Klokke.flac -=- CDDA (100%)
Summary 100,00% CDDA
216997860
 
Об альбоме (сборнике)
Carsten Dahl Experience’s new CD “METAMORPHOSIS” was recorded in Oslo immediately after their concert at Molde Jazz Festival in July 2011. The pianist Carsten Dahl, saxophonist Jesper Zeuthen, bassist Nils “Bosse” Davidson and drummer Stefan Pasborg have once again created a unique musical work that is relevant across, and beyond musical genres. The listener is invited into a universe, where the sound of silence opens itself up into a colorful spectrum of explosive improvisational pieces - performed and mastered in a manner never before seen or heard in a Danish group. The group manages to explore and challenge each other’s musicianship in their joint venture down the road of free improvisational jazz. This CD marks the group’s second release, and features music that contains elements of chaos and harmony performed by Dahl with his solid improvisations, Zeuthen’s balkanized sax and Pasborg’s and Davidsen’s consistent and rhythmic playing. Improvisational Jazz at its very best.
 
Состав
Carsten Dahl - grand piano, prepared piano, percussion, stringinstrument (ektara) and flute
Jesper Zeuthen - altosax
Nils Davidsen - bass, percussion and flute
Stefan Pasborg - drums and percussion
По всем вопросам пишите личное сообщение пользователю M0p94ok.
15:59
117
Нет комментариев. Ваш будет первым!