Вы используете незарегистрированную версию компонента "Вкладки"!

Поиск

(avant-garde, free jazz) [cd] The Jimmy Giuffre 3 & 4 - New York Concerts (1965), FLAC (tracks+.cue), lossless

(avant-garde, free jazz) [cd] The Jimmy Giuffre 3 & 4 - New York Concerts (1965), FLAC (tracks+.cue), lossless
Треклист:
(avant-garde, free jazz) [cd] The Jimmy Giuffre 3 & 4 - New York Concerts (1965), FLAC (tracks+.cue), lossless




Жанр:avant-garde, free jazz
Год выпуска: 1965
Издатель (лейбл):2014, Elemental Music
Формат: FLAC (tracks+.cue)
Битрейт аудио: lossless
Продолжительность: 01:26:30
Источник: what.cd
 
Disc 1


Disc 1
Jimmy Giuffre - Clarinet, Tenor Saxophone
Richard Davis - Bass
Joe Chambers - Drums
Judson Hall, New York City, September 3, 1965

01 - Syncopate 07:50
02 - Intro 00:37
03 - Crossroads 07:47
04 - Drive 11:39
05 - Quadrangle 03:52
06 - Angles 04:32

 
.log
Exact Audio Copy V1.0 beta 3 from 29. August 2011
EAC extraction logfile from 18. December 2014, 1:13
Jimmy Giuffre 3 & 4 / New York Concerts
Used drive : HL-DT-STDVDRAM SP60NB50 Adapter: 2 ID: 1
Read mode : Secure
Utilize accurate stream : Yes
Defeat audio cache : Yes
Make use of C2 pointers : No
Read offset correction : 6
Overread into Lead-In and Lead-Out : No
Fill up missing offset samples with silence : Yes
Delete leading and trailing silent blocks : No
Null samples used in CRC calculations : Yes
Used interface : Native Win32 interface for Win NT & 2000
Gap handling : Appended to previous track
Used output format : User Defined Encoder
Selected bitrate : 1024 kBit/s
Quality : High
Add ID3 tag : No
Command line compressor : C:\Program Files (x86)\Exact Audio Copy\Flac\flac.exe
Additional command line options : -8 -V -T "ARTIST=%artist%" -T "TITLE=%title%" -T "ALBUM=%albumtitle%" -T "DATE=%year%" -T "TRACKNUMBER=%tracknr%" -T "GENRE=%genre%" -T "PERFORMER=%albuminterpret%" -T "COMPOSER=%composer%" %haslyrics%--tag-from-file=LYRICS="%lyricsfile%"%haslyrics% -T "ALBUMARTIST=%albumartist%" -T "DISCNUMBER=%cdnumber%" -T "TOTALDISCS=%totalcds%" -T "TOTALTRACKS=%numtracks%" -T "COMMENT=%comment%" %source% -o %dest%
TOC of the extracted CD
Track | Start | Length | Start sector | End sector
---------------------------------------------------------
1 | 0:00.00 | 7:51.50 | 0 | 35374
2 | 7:51.50 | 0:39.22 | 35375 | 38321
3 | 8:30.72 | 7:49.34 | 38322 | 73530
4 | 16:20.31 | 11:40.54 | 73531 | 126084
5 | 28:01.10 | 3:53.54 | 126085 | 143613
6 | 31:54.64 | 4:32.32 | 143614 | 164045
Track 1
Filename C:\FLAC Rips\The Jimmy Giuffre 3 & 4 - New York Concerts (2014) [FLAC] {5990425}\Disc 1\01 - Syncopate.wav
Pre-gap length 0:00:02.00
Peak level 88.7 %
Extraction speed 1.3 X
Track quality 100.0 %
Test CRC 6B989AD8
Copy CRC 6B989AD8
Accurately ripped (confidence 1) [02553596] (AR v2)
Copy OK
Track 2
Filename C:\FLAC Rips\The Jimmy Giuffre 3 & 4 - New York Concerts (2014) [FLAC] {5990425}\Disc 1\02 - Intro.wav
Pre-gap length 0:00:02.00
Peak level 58.8 %
Extraction speed 0.8 X
Track quality 100.0 %
Test CRC E6E88838
Copy CRC E6E88838
Accurately ripped (confidence 1) [4199B87C] (AR v2)
Copy OK
Track 3
Filename C:\FLAC Rips\The Jimmy Giuffre 3 & 4 - New York Concerts (2014) [FLAC] {5990425}\Disc 1\03 - Crossroads.wav
Pre-gap length 0:00:02.00
Peak level 93.4 %
Extraction speed 1.4 X
Track quality 99.9 %
Test CRC EC50E9CF
Copy CRC EC50E9CF
Accurately ripped (confidence 1) [7A87A14A] (AR v2)
Copy OK
Track 4
Filename C:\FLAC Rips\The Jimmy Giuffre 3 & 4 - New York Concerts (2014) [FLAC] {5990425}\Disc 1\04 - Drive.wav
Pre-gap length 0:00:02.00
Peak level 91.3 %
Extraction speed 1.8 X
Track quality 100.0 %
Test CRC A4A90552
Copy CRC A4A90552
Accurately ripped (confidence 1) [0BB85D75] (AR v2)
Copy OK
Track 5
Filename C:\FLAC Rips\The Jimmy Giuffre 3 & 4 - New York Concerts (2014) [FLAC] {5990425}\Disc 1\05 - Quadrangle.wav
Pre-gap length 0:00:02.00
Peak level 90.7 %
Extraction speed 1.6 X
Track quality 99.9 %
Test CRC 37D6088B
Copy CRC 37D6088B
Accurately ripped (confidence 1) [3D221250] (AR v2)
Copy OK
Track 6
Filename C:\FLAC Rips\The Jimmy Giuffre 3 & 4 - New York Concerts (2014) [FLAC] {5990425}\Disc 1\06 - Angles.wav
Pre-gap length 0:00:02.00
Peak level 86.9 %
Extraction speed 1.9 X
Track quality 100.0 %
Test CRC A067B566
Copy CRC A067B566
Accurately ripped (confidence 1) [B44A5586] (AR v2)
Copy OK
All tracks accurately ripped
No errors occurred
End of status report
---- CUETools DB Plugin V2.1.3
[CTDB TOCID: 8smnmSDxkUm7EtutKo0dqO1KMJg-] disk not present in database, Submit result: 8smnmSDxkUm7EtutKo0dqO1KMJg- has been uploaded
==== Log checksum DD636FB84F4178BF551DE23D0E9E6C1E09BBCB7D747D73DDDFD3B60D0FF5EBD8 ====
 
.cue
REM GENRE Jazz
REM DATE 1965
REM DISCID 4E088B06
REM COMMENT "ExactAudioCopy v1.0b3"
PERFORMER "Jimmy Giuffre 3 & 4"
TITLE "New York Concerts, 1"
FILE "01 - Syncopate.wav" WAVE
TRACK 01 AUDIO
TITLE "Syncopate"
PERFORMER "Jimmy Giuffre 3 & 4"
INDEX 01 00:00:00
TRACK 02 AUDIO
TITLE "Intro"
PERFORMER "Jimmy Giuffre 3 & 4"
INDEX 00 07:49:50
FILE "02 - Intro.wav" WAVE
INDEX 01 00:00:00
TRACK 03 AUDIO
TITLE "Crossroads"
PERFORMER "Jimmy Giuffre 3 & 4"
INDEX 00 00:37:22
FILE "03 - Crossroads.wav" WAVE
INDEX 01 00:00:00
TRACK 04 AUDIO
TITLE "Drive"
PERFORMER "Jimmy Giuffre 3 & 4"
INDEX 00 07:47:34
FILE "04 - Drive.wav" WAVE
INDEX 01 00:00:00
TRACK 05 AUDIO
TITLE "Quadrangle"
PERFORMER "Jimmy Giuffre 3 & 4"
INDEX 00 11:38:54
FILE "05 - Quadrangle.wav" WAVE
INDEX 01 00:00:00
TRACK 06 AUDIO
TITLE "Angles"
PERFORMER "Jimmy Giuffre 3 & 4"
INDEX 00 03:51:54
FILE "06 - Angles.wav" WAVE
INDEX 01 00:00:00
 
Disc 2


Disc 2
Jimmy Giuffre - Clarinet, Tenor Saxophone
Don Friedman - Piano
Barre Phillips - Bass
Joe Chambers - Drums
Wollman Auditorium at Columbia University, New York City, May 19, 1965

01 - Syncopate 08:20
02 - Quadrangle 07:06
03 - Three Bars in One 08:50
04 - Cry, Want 09:40
05 - Angles 08:10
06 - Drive 08:06

 
.log
Exact Audio Copy V1.0 beta 3 from 29. August 2011
EAC extraction logfile from 18. December 2014, 2:15
The Jimmy Giuffre 3 & 4 / New York Concerts
Used drive : HL-DT-STDVDRAM SP60NB50 Adapter: 2 ID: 1
Read mode : Secure
Utilize accurate stream : Yes
Defeat audio cache : Yes
Make use of C2 pointers : No
Read offset correction : 6
Overread into Lead-In and Lead-Out : No
Fill up missing offset samples with silence : Yes
Delete leading and trailing silent blocks : No
Null samples used in CRC calculations : Yes
Used interface : Native Win32 interface for Win NT & 2000
Gap handling : Appended to previous track
Used output format : User Defined Encoder
Selected bitrate : 1024 kBit/s
Quality : High
Add ID3 tag : No
Command line compressor : C:\Program Files (x86)\Exact Audio Copy\Flac\flac.exe
Additional command line options : -8 -V -T "ARTIST=%artist%" -T "TITLE=%title%" -T "ALBUM=%albumtitle%" -T "DATE=%year%" -T "TRACKNUMBER=%tracknr%" -T "GENRE=%genre%" -T "PERFORMER=%albuminterpret%" -T "COMPOSER=%composer%" %haslyrics%--tag-from-file=LYRICS="%lyricsfile%"%haslyrics% -T "ALBUMARTIST=%albumartist%" -T "DISCNUMBER=%cdnumber%" -T "TOTALDISCS=%totalcds%" -T "TOTALTRACKS=%numtracks%" -T "COMMENT=%comment%" %source% -o %dest%
TOC of the extracted CD
Track | Start | Length | Start sector | End sector
---------------------------------------------------------
1 | 0:00.00 | 8:22.16 | 0 | 37665
2 | 8:22.16 | 7:08.35 | 37666 | 69800
3 | 15:30.51 | 8:51.55 | 69801 | 109680
4 | 24:22.31 | 9:42.28 | 109681 | 153358
5 | 34:04.59 | 8:11.62 | 153359 | 190245
6 | 42:16.46 | 8:06.14 | 190246 | 226709
Track 1
Filename C:\FLAC Rips\The Jimmy Giuffre 3 & 4 - New York Concerts (2014) [FLAC] {5990425}\Disc 2\01 - Syncopate.wav
Pre-gap length 0:00:02.00
Peak level 62.4 %
Extraction speed 1.3 X
Track quality 100.0 %
Test CRC 3C92A9D1
Copy CRC 3C92A9D1
Accurately ripped (confidence 1) [01449FB6] (AR v2)
Copy OK
Track 2
Filename C:\FLAC Rips\The Jimmy Giuffre 3 & 4 - New York Concerts (2014) [FLAC] {5990425}\Disc 2\02 - Quadrangle.wav
Pre-gap length 0:00:02.00
Peak level 91.5 %
Extraction speed 1.5 X
Track quality 100.0 %
Test CRC 9D81B904
Copy CRC 9D81B904
Accurately ripped (confidence 1) [C6559852] (AR v2)
Copy OK
Track 3
Filename C:\FLAC Rips\The Jimmy Giuffre 3 & 4 - New York Concerts (2014) [FLAC] {5990425}\Disc 2\03 - Three Bar In One.wav
Pre-gap length 0:00:02.00
Peak level 69.8 %
Extraction speed 1.7 X
Track quality 100.0 %
Test CRC A848C2C1
Copy CRC A848C2C1
Accurately ripped (confidence 1) [B8CF2D0F] (AR v2)
Copy OK
Track 4
Filename C:\FLAC Rips\The Jimmy Giuffre 3 & 4 - New York Concerts (2014) [FLAC] {5990425}\Disc 2\04 - Cry, Want.wav
Pre-gap length 0:00:02.00
Peak level 94.6 %
Extraction speed 1.9 X
Track quality 100.0 %
Test CRC E2993EB1
Copy CRC E2993EB1
Accurately ripped (confidence 1) [B0D4607C] (AR v2)
Copy OK
Track 5
Filename C:\FLAC Rips\The Jimmy Giuffre 3 & 4 - New York Concerts (2014) [FLAC] {5990425}\Disc 2\05 - Angles.wav
Pre-gap length 0:00:02.00
Peak level 91.2 %
Extraction speed 2.1 X
Track quality 100.0 %
Test CRC 61F2C2C4
Copy CRC 61F2C2C4
Accurately ripped (confidence 1) [3E22FCF5] (AR v2)
Copy OK
Track 6
Filename C:\FLAC Rips\The Jimmy Giuffre 3 & 4 - New York Concerts (2014) [FLAC] {5990425}\Disc 2\06 - Drive.wav
Pre-gap length 0:00:02.00
Peak level 58.3 %
Extraction speed 2.3 X
Track quality 100.0 %
Test CRC A0F6AC62
Copy CRC A0F6AC62
Accurately ripped (confidence 1) [68C2C131] (AR v2)
Copy OK
All tracks accurately ripped
No errors occurred
End of status report
---- CUETools DB Plugin V2.1.3
[CTDB TOCID: _1cNjjWrUGcumeie0cwlIq1D_wY-] disk not present in database, Submit result: _1cNjjWrUGcumeie0cwlIq1D_wY- has been uploaded
==== Log checksum 4B291E0341423FF47BD9C3FBA15155366C76E224F039B8070FFBF3460F7E77E6 ====
 
.cue
REM GENRE Jazz
REM DATE 1965
REM DISCID 460BCE06
REM COMMENT "ExactAudioCopy v1.0b3"
PERFORMER "The Jimmy Giuffre 3 & 4"
TITLE "New York Concerts, 2"
FILE "01 - Syncopate.wav" WAVE
TRACK 01 AUDIO
TITLE "Syncopate"
PERFORMER "The Jimmy Giuffre 3 & 4"
INDEX 01 00:00:00
TRACK 02 AUDIO
TITLE "Quadrangle"
PERFORMER "The Jimmy Giuffre 3 & 4"
INDEX 00 08:20:16
FILE "02 - Quadrangle.wav" WAVE
INDEX 01 00:00:00
TRACK 03 AUDIO
TITLE "Three Bar In One"
PERFORMER "The Jimmy Giuffre 3 & 4"
INDEX 00 07:06:35
FILE "03 - Three Bar In One.wav" WAVE
INDEX 01 00:00:00
TRACK 04 AUDIO
TITLE "Cry, Want"
PERFORMER "The Jimmy Giuffre 3 & 4"
INDEX 00 08:49:55
FILE "04 - Cry, Want.wav" WAVE
INDEX 01 00:00:00
TRACK 05 AUDIO
TITLE "Angles"
PERFORMER "The Jimmy Giuffre 3 & 4"
INDEX 00 09:40:28
FILE "05 - Angles.wav" WAVE
INDEX 01 00:00:00
TRACK 06 AUDIO
TITLE "Drive"
PERFORMER "The Jimmy Giuffre 3 & 4"
INDEX 00 08:09:62
FILE "06 - Drive.wav" WAVE
INDEX 01 00:00:00
другие релизы
По всем вопросам пишите личное сообщение пользователю M0p94ok.
19:10
316
Нет комментариев. Ваш будет первым!