Вы используете незарегистрированную версию компонента "Вкладки"!

Поиск

(Avant-Garde, Free Jazz) [CD] Jemeel Moondoc (w/ Matthew Shipp, Roy Campbell Jr., Steve Swell, Hilliard Greene, Newman Taylor Baker) - The Zookeeper's House - 2014, FLAC (tracks+.cue), lossless

(Avant-Garde, Free Jazz) [CD] Jemeel Moondoc (w/ Matthew Shipp, Roy Campbell Jr., Steve Swell, Hilliard Greene, Newman Taylor Baker) - The Zookeeper's House - 2014, FLAC (tracks+.cue), lossless
Треклист:
Jemeel Moondoc / The Zookeeper's House
Жанр: Avant-Garde, Free Jazz
Носитель: CD
Страна-производитель диска: U.S.A.
Год издания: 2014
Издатель (лейбл): Relative Pitch Records
Номер по каталогу: RPR1026
Аудиокодек: FLAC (*.flac)
Тип рипа: tracks+.cue
Битрейт аудио: lossless
Продолжительность: 50:43
Источник (релизер): я
Наличие сканов в содержимом раздачи: да
Треклист:
1. The Zookeeper’s House 9:11
2. Little Blue Elvira 9:43
3. Ptah, the El Daoud (Alice Coltrane, arr. Jemeel Moondoc) 10:48
4. One for Monk & Trane 12:42
5. For the Love of Cindy 8:18
All tracks by Jemeel Moondoc except where indicated.
Recorded on October 26, 2013 at Park West Studios, Brooklyn New York.
Jemeel Moondoc – Alto Sax
Matthew Shipp – Piano (1 & 4)
Roy Campbell Jr. – Trumpet (2 & 3)
Steve Swell – Trombone (2 & 3)
Hilliard Greene – Bass
Newman Taylor Baker – Drums
 
Лог создания рипа
Exact Audio Copy V1.0 beta 3 from 29. August 2011
EAC extraction logfile from 1. September 2014, 11:14
Jemeel Moondoc / The Zookeeper's House
Used drive : SlimtypeeNAU508 5 Adapter: 1 ID: 0
Read mode : Secure
Utilize accurate stream : Yes
Defeat audio cache : Yes
Make use of C2 pointers : No
Read offset correction : 6
Overread into Lead-In and Lead-Out : No
Fill up missing offset samples with silence : Yes
Delete leading and trailing silent blocks : No
Null samples used in CRC calculations : Yes
Used interface : Native Win32 interface for Win NT & 2000
Gap handling : Appended to previous track
Used output format : User Defined Encoder
Selected bitrate : 768 kBit/s
Quality : High
Add ID3 tag : No
Command line compressor : C:\Program Files (x86)\Exact Audio Copy\Flac\flac.exe
Additional command line options : -8 -V -T "ARTIST=%artist%" -T "TITLE=%title%" -T "ALBUM=%albumtitle%" -T "DATE=%year%" -T "TRACKNUMBER=%tracknr%" -T "TOTALTRACKS=%numtracks%" -T "GENRE=%genre%" -T "ALBUMARTIST=%albumartist%" -T "ALBUM ARTIST=%albumartist%" -T "COMMENT=EAC Secure Mode, Test & Copy, AccurateRip, FLAC -8" %source%
TOC of the extracted CD
Track | Start | Length | Start sector | End sector
---------------------------------------------------------
1 | 0:00.00 | 9:11.13 | 0 | 41337
2 | 9:11.13 | 9:43.07 | 41338 | 85069
3 | 18:54.20 | 10:48.00 | 85070 | 133669
4 | 29:42.20 | 12:42.28 | 133670 | 190847
5 | 42:24.48 | 8:18.37 | 190848 | 228234
Track 1
Filename C:\EAC rips\01 - The Zookeeper's House.wav
Pre-gap length 0:00:02.00
Peak level 100.0 %
Extraction speed 1.3 X
Track quality 100.0 %
Test CRC 3B296243
Copy CRC 3B296243
Track not present in AccurateRip database
Copy OK
Track 2
Filename C:\EAC rips\02 - Little Blue Elvira.wav
Pre-gap length 0:00:02.00
Peak level 100.0 %
Extraction speed 1.6 X
Track quality 100.0 %
Test CRC C2B74B83
Copy CRC C2B74B83
Track not present in AccurateRip database
Copy OK
Track 3
Filename C:\EAC rips\03 - Ptah, the El Daoud.wav
Pre-gap length 0:00:02.00
Peak level 100.0 %
Extraction speed 1.8 X
Track quality 100.0 %
Test CRC 9A029D28
Copy CRC 9A029D28
Track not present in AccurateRip database
Copy OK
Track 4
Filename C:\EAC rips\04 - One for Monk & Trane.wav
Pre-gap length 0:00:02.00
Peak level 100.0 %
Extraction speed 2.1 X
Track quality 100.0 %
Test CRC 53148CFF
Copy CRC 53148CFF
Track not present in AccurateRip database
Copy OK
Track 5
Filename C:\EAC rips\05 - For the Love of Cindy.wav
Pre-gap length 0:00:02.00
Peak level 100.0 %
Extraction speed 2.2 X
Track quality 100.0 %
Test CRC BDBBD93E
Copy CRC BDBBD93E
Track not present in AccurateRip database
Copy OK
None of the tracks are present in the AccurateRip database
No errors occurred
End of status report
---- CUETools DB Plugin V2.1.4
[CTDB TOCID: NoX5rrnsZ.qy4viIGByr3YIh7dw-] found
Submit result: NoX5rrnsZ.qy4viIGByr3YIh7dw- has been confirmed
Track | CTDB Status
1 | (1/1) Accurately ripped
2 | (1/1) Accurately ripped
3 | (1/1) Accurately ripped
4 | (1/1) Accurately ripped
5 | (1/1) Accurately ripped
==== Log checksum EBCF3ABA26C03BFCCB13F9F6652D65CA7F7CC196D18783A675DEE9136A003CFF ====
 
Содержание индексной карты (.CUE)
REM GENRE Jazz
REM DATE 2014
REM DISCID 3F0BE305
REM COMMENT "ExactAudioCopy v1.0b3"
PERFORMER " Jemeel Moondoc"
TITLE "The Zookeeper's House"
FILE "01 - The Zookeeper's House.wav" WAVE
TRACK 01 AUDIO
TITLE "The Zookeeper's House"
PERFORMER " Jemeel Moondoc"
ISRC QMRAT1400045
FLAGS DCP
INDEX 01 00:00:00
TRACK 02 AUDIO
TITLE "Little Blue Elvira"
PERFORMER " Jemeel Moondoc"
ISRC QMRAT1400046
FLAGS DCP
INDEX 00 09:09:13
FILE "02 - Little Blue Elvira.wav" WAVE
INDEX 01 00:00:00
TRACK 03 AUDIO
TITLE "Ptah, the El Daoud"
PERFORMER " Jemeel Moondoc"
ISRC QMRAT1400047
FLAGS DCP
INDEX 00 09:41:07
FILE "03 - Ptah, the El Daoud.wav" WAVE
INDEX 01 00:00:00
TRACK 04 AUDIO
TITLE "One for Monk & Trane"
PERFORMER " Jemeel Moondoc"
ISRC QMRAT1400048
FLAGS DCP
INDEX 00 10:46:00
FILE "04 - One for Monk & Trane.wav" WAVE
INDEX 01 00:00:00
TRACK 05 AUDIO
TITLE "For the Love of Cindy"
PERFORMER " Jemeel Moondoc"
ISRC QMRAT1400049
FLAGS DCP
INDEX 00 12:40:28
FILE "05 - For the Love of Cindy.wav" WAVE
INDEX 01 00:00:00
По всем вопросам пишите личное сообщение пользователю M0p94ok.
04:35
209
Нет комментариев. Ваш будет первым!