Вы используете незарегистрированную версию компонента "Вкладки"!

Поиск

(Avant-Garde, Free Jazz) Archie Shepp & Horace Parlan Duo - Reunion - 1987, APE (image+.cue), lossless

(Avant-Garde, Free Jazz) Archie Shepp & Horace Parlan Duo - Reunion - 1987, APE (image+.cue), lossless
Треклист:
Archie Shepp & Horace Parlan Duo - Reunion
Жанр: Avant-Garde, Free Jazz
Год выпуска диска: 1987
Производитель диска: Bellaphone Records, West Germany
Аудио кодек: APE
Тип рипа: image+.cue
Битрейт аудио: lossless
Продолжительность: 53:27
Трэклист:
1. Sophisticated Lady (Duke Ellington) 7:50
2. Cousin Flo (Archie Shepp) 5:13
3. A Flower Is A Lovesome Thing (Billy Strayhorn) 8:44
4. Call Me (Archie Shepp) 6:47
5. Pannonica (Thelonious Monk) 9:43
6. When Lights Are Low (Benny Carter) 6:46
7. Stardust (Hoagy Carmichael) 8:21
Personnel:
Archie Shepp - (Tenor Saxophone)
Horace Parlan - (Piano)
 
Лог EAC
Exact Audio Copy V0.99 prebeta 4 from 23. January 2008
EAC extraction logfile from 1. May 2009, 17:45
Archie Shepp - Horace Parlan / Duo Reunion
Used drive : _NEC DVD_RW ND-3500AG Adapter: 0 ID: 0
Read mode : Secure
Utilize accurate stream : Yes
Defeat audio cache : Yes
Make use of C2 pointers : No
Read offset correction : 48
Overread into Lead-In and Lead-Out : No
Fill up missing offset samples with silence : Yes
Delete leading and trailing silent blocks : No
Null samples used in CRC calculations : Yes
Used interface : Native Win32 interface for Win NT & 2000
Used output format : Internal WAV Routines
Sample format : 44.100 Hz; 16 Bit; Stereo
TOC of the extracted CD
Track | Start | Length | Start sector | End sector
---------------------------------------------------------
1 | 0:00.00 | 7:49.28 | 0 | 35202
2 | 7:49.28 | 5:13.00 | 35203 | 58677
3 | 13:02.28 | 8:44.70 | 58678 | 98047
4 | 21:47.23 | 6:47.40 | 98048 | 128612
5 | 28:34.63 | 9:43.50 | 128613 | 172387
6 | 38:18.38 | 6:45.70 | 172388 | 202832
7 | 45:04.33 | 8:23.32 | 202833 | 240589
Range status and errors
Selected range
Filename J:\Rip\Archie Shepp - Horace Parlan - Duo Reunion.wav
Peak level 97.3 %
Range quality 100.0 %
Copy CRC 54828EAF
Copy OK
No errors occurred
AccurateRip summary
Track 1 accurately ripped (confidence 1) [6711C9A4]
Track 2 accurately ripped (confidence 1) [C9C08778]
Track 3 accurately ripped (confidence 1) [117F1F11]
Track 4 accurately ripped (confidence 1) [472E4ECF]
Track 5 accurately ripped (confidence 1) [B880312E]
Track 6 accurately ripped (confidence 1) [219A514B]
Track 7 accurately ripped (confidence 1) [A0829335]
All tracks accurately ripped
End of status report
Any questions -> support@pro-jazz.com. По всем вопросам пишите -> support@pro-jazz.com
11:29
211
Нет комментариев. Ваш будет первым!