Вы используете незарегистрированную версию компонента "Вкладки"!

Поиск

(Avant-Garde, Free Jazz, African Jazz) Johnny Mbizo Dyani - Born Under The Heat - 1996, FLAC (image+.cue), lossless

(Avant-Garde, Free Jazz, African Jazz) Johnny Mbizo Dyani - Born Under The Heat - 1996, FLAC (image+.cue), lossless
Треклист:
Johnny Mbizo Dyani – Born Under The Heat
Жанр: Avant-Garde, Free Jazz, African Jazz
Год издания диска: 1996
Издатель (лейбл): Dragon
Номер по каталогу: DRCD 288
Аудиокодек: FLAC (*.flac)
Тип рипа: image+.cue
Битрейт аудио: lossless
Продолжительность: 62:51
Источник (релизер): dreadbull
Наличие сканов в содержимом раздачи: да
Треклист:
01. Winnie Mandela (3:22)
02. Wish You Sunshine (9:50)
03. Portrait Of Tete Mbambisa (2:21)
04. Lament For Crossroads (6:43)
05. The Boys From Somafco (7:12)
06. Namibia (5:06)
07. Song For The Workers (10:46)
08. Musicians Musician (9:27)
09. Let My People Get Some Freedom (8:05)
 
 
Лог создания рипа
Exact Audio Copy V1.0 beta 3 from 29. August 2011
EAC extraction logfile from 17. February 2012, 17:58
Johnny Mbizo Dyani / Born Under the Heat
Used drive : ASUS DRW-22B2L Adapter: 0 ID: 1
Read mode : Secure
Utilize accurate stream : Yes
Defeat audio cache : Yes
Make use of C2 pointers : No
Read offset correction : 6
Overread into Lead-In and Lead-Out : No
Fill up missing offset samples with silence : Yes
Delete leading and trailing silent blocks : No
Null samples used in CRC calculations : Yes
Used interface : Native Win32 interface for Win NT & 2000
Used output format : User Defined Encoder
Selected bitrate : 128 kBit/s
Quality : High
Add ID3 tag : Yes
Command line compressor : C:\Program Files\FLAC\flac.exe
Additional command line options : -8 -V -T "ARTIST=%artist%" -T "TITLE=%title%" -T "ALBUM=%albumtitle%" -T "DATE=%year%" -T "TRACKNUMBER=%tracknr%" -T "GENRE=%genre%" -T "PERFORMER=%albuminterpret%" -T "COMPOSER=%composer%" %haslyrics%--tag-from-file=LYRICS="%lyricsfile%"%haslyrics% -T "ALBUMARTIST=%albumartist%" -T "DISCNUMBER=%cdnumber%" -T "TOTALDISCS=%totalcds%" -T "TOTALTRACKS=%numtracks%" -T "COMMENT=%comment%" %source% -o %dest%
TOC of the extracted CD
Track | Start | Length | Start sector | End sector
---------------------------------------------------------
1 | 0:00.00 | 3:21.67 | 0 | 15141
2 | 3:21.67 | 9:50.03 | 15142 | 59394
3 | 13:11.70 | 2:21.15 | 59395 | 69984
4 | 15:33.10 | 6:42.57 | 69985 | 100191
5 | 22:15.67 | 7:11.43 | 100192 | 132559
6 | 29:27.35 | 5:06.35 | 132560 | 155544
7 | 34:33.70 | 10:45.55 | 155545 | 203974
8 | 45:19.50 | 9:26.45 | 203975 | 246469
9 | 54:46.20 | 8:04.57 | 246470 | 282826
Range status and errors
Selected range
Filename D:\Donkey Files\Johnny Mbizo Dyani - Born Under the Heat (1983.85, Dragon 1996) [eac-flac-scans] byDrBull\Born Under the Heat.wav
Peak level 96.9 %
Extraction speed 6.0 X
Range quality 100.0 %
Test CRC DF379499
Copy CRC DF379499
Copy OK
No errors occurred
AccurateRip summary
Track 1 not present in database
Track 2 not present in database
Track 3 not present in database
Track 4 not present in database
Track 5 not present in database
Track 6 not present in database
Track 7 not present in database
Track 8 not present in database
Track 9 not present in database
None of the tracks are present in the AccurateRip database
End of status report
==== Log checksum DAD201A15162E6FE50F635059D945076DDE6C75EE4DC0363D101449D405A0F1C ====
 
Содержание индексной карты (.CUE)
REM GENRE
REM DATE 1996
REM DISCID 7F0EBB09
REM COMMENT ExactAudioCopy v1.0b3
PERFORMER "Johnny Mbizo Dyani"
TITLE "Born Under The Heat"
FILE "Born Under The Heat.flac" WAVE
TRACK 01 AUDIO
TITLE "Winnie Mandela"
ISRC SCXI<9580010
INDEX 01 00:00:00
TRACK 02 AUDIO
TITLE "Wish You Sunshine"
ISRC SCXI<9580020
INDEX 00 03:18:40
INDEX 01 03:21:67
TRACK 03 AUDIO
TITLE "Portrait Of Tete Mbambisa"
ISRC SCXI<9580030
INDEX 00 13:07:32
INDEX 01 13:11:70
TRACK 04 AUDIO
TITLE "Lament For Crossroads"
ISRC SCXI<9580040
INDEX 00 15:29:60
INDEX 01 15:33:10
TRACK 05 AUDIO
TITLE "The Boys From Somafco"
ISRC SCXI<9580050
INDEX 00 22:13:62
INDEX 01 22:15:67
TRACK 06 AUDIO
TITLE "Namibia"
ISRC SCXI<9580060
INDEX 00 29:24:05
INDEX 01 29:27:35
TRACK 07 AUDIO
TITLE "Song For The Workers"
ISRC SCXI<9580070
INDEX 00 34:31:32
INDEX 01 34:33:70
TRACK 08 AUDIO
TITLE "Musicians Musician"
ISRC SCXI<9580080
INDEX 00 45:14:47
INDEX 01 45:19:50
TRACK 09 AUDIO
TITLE "Let My People Get Some Freedom"
ISRC SCXI<9580090
INDEX 00 54:42:65
INDEX 01 54:46:20
 
Об альбоме (сборнике)
For this session, recorded only six weeks after Afrika on Steeplechase, South African bassist Johnny Dyani continued the use of a six-or seven-member ensemble and inched closer to the sort of music Abdullah Ibrahim, one of his mentors, was creating at around the same time with his band Ekaya. The edgy roughness and avant-garde affinity shown in his earlier ensembles with John Tchicai and Dudu Pukwana have been replaced by a slightly smoother (though, certainly, still rambunctious) sound and more song-oriented pieces. The band's a strong one, however, the compositions are engaging and the soloing imaginative. A couple of the pieces, including "Song for the Workers," still have the aching, bitter quality of his best work. Dyani spends a good deal of time on piano ("Wish You Sunshine" is a solo piano feature), again evincing Ibrahim's influence but in the process sacrificing bass duties to Thomas Ostergren who, on electric bass, can't quite plumb the same depths as Dyani. There's little to dislike here and fans of bands like Ekaya will find much to savor, but those who remember his prior, more adventurous work with great fondness may be somewhat disappointed.
~Brian Olewnick, AMG
 
Состав
Johnny Dyani - arranger, bass (#1,4-6,8,9), piano (#2,3,7);
Ulf Adåker - trumpet (#1,3,4,6);
Jonas Mosa Gwangwa - trombone (#5,7);
Charles Davis - alto sax (#1,3-7);
Krister Andersson - tenor sax (#1,3,4,6);
Peter Shimi Radise - tenor sax (#1,4,5,7);
Ed Epstein - tenor sax (#8,9);
Pierre Dørge - guitar (#8,9);
Thomas Östergren - electric bass (#1,3-7);
Gilbert Matthews - drums (#1,3-9).
#1-7 rec. at AV-Electronic, Stockholm, Nov. 18, 1983.
Released as DRLP 68 in 1984.
Bonus #8-9 rec. live at Lunds Museum of Art, May 1985.
 
Any questions -> support@pro-jazz.com. По всем вопросам пишите -> support@pro-jazz.com
22:38
173
Нет комментариев. Ваш будет первым!