Вы используете незарегистрированную версию компонента "Вкладки"!

Поиск

(Avant Garde, Free Jazz, Abstract) AMM - To Hear And Back Again - 1978, APE (tracks+.cue), lossless

Треклист:
AMM - To Hear And Back Again
Жанр: Avant Garde, Free Jazz, Abstract
Год выпуска диска: 1978
Производитель диска: UK (Matchless Recordings)
Аудио кодек: APE
Тип рипа: tracks+.cue
Битрейт аудио: lossless
Продолжительность: 78.14
Трэклист:
1 Unity First (7:40)
2 To Hear (21:39)
3 Back Again (25:32)
4 Kunstmusik (13:48)
5 Duett (9:18)
Доп. информация: Eddie Prevost - drums
Lou Gare - tenor saxophone
скачано из Сети
 
eac log
Estrazione file di log EAC da 13. Marzo 2008, 11:10 per CD
Artista sconosciuto / Titolo sconosciuto
Unitа predefinita: LITE-ON DVDRW SHW-16H5S Adapter: 1 ID: 1
Modalitа di lettura: Sicuro con NO C2, Lettura Accurata, Disattiva Cache
Correzione offset di lettura:0
Sovrascrivi anche nel Lead-In e Lead-Out : No
Formato di destinazione scelto: Routine interne WAV
44.100 Hz; 16 Bit; Stereo
Altre opzioni :
Riempi sample offset mancanti con silenzio : Sм
Rimuovi blocchi di silezio ad inizio e fine : No
Interfaccia nativa Win32 per Windows NT & 2000
Stato intervallo ed errori
Intervallo selezionato
Nome file E:\AMM\To Hear and Back again\CDImage.wav
Livello di picco 99.2 %
Qualitа intervallo 99.9 %
CRC 45606846
Copia corretta
Non sono stati riscontrati errori
Fine del resoconto di stato
 
cue
PERFORMER "AMM"
TITLE "To Hear and Back Again (1994)"
FILE "CDImage.ape" APE
TRACK 01 AUDIO
TITLE "Unity First"
INDEX 01 00:00:00
TRACK 02 AUDIO
TITLE "To Hear"
INDEX 01 07:43:00
TRACK 03 AUDIO
TITLE "Back Again"
INDEX 01 29:25:00
TRACK 04 AUDIO
TITLE "Kunstmusik"
INDEX 01 55:05:00
TRACK 05 AUDIO
TITLE "Duett"
INDEX 01 68:54:00
Any questions -> support@pro-jazz.com. По всем вопросам пишите -> support@pro-jazz.com
00:31
132
Нет комментариев. Ваш будет первым!