Вы используете незарегистрированную версию компонента "Вкладки"!

Поиск

(Avant-Garde / Free Improvisation / Tzadik) John Zorn - Archery - 1997, FLAC (image+.cue), lossless

Треклист:
John Zorn - Archery

Жанр: Avant-Garde / Free Improvisation / Tzadik
Год выпуска диска: 1997
Производитель диска: USA (Tzadik TZ 7316)
Аудио кодек: FLAC
Тип рипа: image+.cue
Битрейт аудио: lossless
Продолжительность: 2:45:05
Источник: Собственный рип с оригинального диска
Robert Dick: flute, bass flute, piccolo, game calls
George Lewis: tenor trombone
John Zorn: alto and soprano saxophones, Bb and Eb clarinets, game calls
Anthony Coleman: Yamaha organ, electric piano, obsolete nutron and Big Muff
Wayne Horvitz: Farfisa organ, harmonica, tape, electronics
Mark Kramer: cheap organ, tapes, synthesizer, radio, BeeGees rhythm machine, devices
Eugene Chadbourne: Epiphone and George Burns electrc guitars, Gibson acoustic, Champ and Traynor amps, personal effects
Bill Horvitz: electric guitar
Bill Laswell: 4 and 6 string Fender basses
Polly Bradfield: violin
Tom Cora: cello
David Moss: drums, voice, wood, water, cymbals, metal pieces, pods, steel drum, zither, hammered dulcimer, Bertoia sound sculptures, toys, mylar
Mark Smith: prompter
Rehearsal
1. Part 1
2. Part 2
3. Part 3
Disc One
1. A1-D2
2. D2-G1
Disc Two
1. G2-L4
2. L5-O14
Recorded September 12 & 13, 1981 at OAO studios, Brooklyn

 
EAC Report (Rehearsal)
Exact Audio Copy V0.99 prebeta 5 from 4. May 2009
EAC extraction logfile from 12. February 2010, 19:32
John Zorn / Archery Rehearsal
Used drive : hp DVD-RAM GH40L Adapter: 0 ID: 1
Read mode : Secure
Utilize accurate stream : Yes
Defeat audio cache : Yes
Make use of C2 pointers : No
Read offset correction : 667
Overread into Lead-In and Lead-Out : No
Fill up missing offset samples with silence : Yes
Delete leading and trailing silent blocks : No
Null samples used in CRC calculations : Yes
Used interface : Installed external ASPI interface
Used output format : User Defined Encoder
Selected bitrate : 1024 kBit/s
Quality : High
Add ID3 tag : No
Command line compressor : C:\Program Files\Exact Audio Copy\Flac\flac.exe
Additional command line options : -6 -V -T "ARTIST=%a" -T "TITLE=%t" -T "ALBUM=%g" -T "DATE=%y" -T "TRACKNUMBER=%n" -T "GENRE=%m" -T "COMMENT=EAC FLAC -6" %s
TOC of the extracted CD
Track | Start | Length | Start sector | End sector
---------------------------------------------------------
1 | 0:00.00 | 32:11.10 | 0 | 144834
2 | 32:11.10 | 16:14.70 | 144835 | 217954
3 | 48:26.05 | 28:33.10 | 217955 | 346439
Range status and errors
Selected range
Filename C:\Users\Igor\Music\eac\John Zorn - Archery Rehearsal.wav
Peak level 99.5 %
Range quality 100.0 %
Test CRC DA1120A1
Copy CRC DA1120A1
Copy OK
No errors occurred
AccurateRip summary
Track 1 cannot be verified as accurate (confidence 1) [163D2195], AccurateRip returned [F5C36540]
Track 2 cannot be verified as accurate (confidence 1) [DEF9D303], AccurateRip returned [3F1C2D16]
Track 3 cannot be verified as accurate (confidence 1) [315A27D0], AccurateRip returned [A152CAE2]
No tracks could be verified as accurate
You may have a different pressing from the one(s) in the database
End of status report
 
EAC Report (Disc 1)
Exact Audio Copy V0.99 prebeta 5 from 4. May 2009
EAC extraction logfile from 12. February 2010, 20:09
John Zorn / Archery (Disc 1)
Used drive : hp DVD-RAM GH40L Adapter: 0 ID: 1
Read mode : Secure
Utilize accurate stream : Yes
Defeat audio cache : Yes
Make use of C2 pointers : No
Read offset correction : 667
Overread into Lead-In and Lead-Out : No
Fill up missing offset samples with silence : Yes
Delete leading and trailing silent blocks : No
Null samples used in CRC calculations : Yes
Used interface : Installed external ASPI interface
Used output format : User Defined Encoder
Selected bitrate : 1024 kBit/s
Quality : High
Add ID3 tag : No
Command line compressor : C:\Program Files\Exact Audio Copy\Flac\flac.exe
Additional command line options : -6 -V -T "ARTIST=%a" -T "TITLE=%t" -T "ALBUM=%g" -T "DATE=%y" -T "TRACKNUMBER=%n" -T "GENRE=%m" -T "COMMENT=EAC FLAC -6" %s
TOC of the extracted CD
Track | Start | Length | Start sector | End sector
---------------------------------------------------------
1 | 0:00.00 | 20:35.10 | 0 | 92634
2 | 20:35.10 | 20:08.62 | 92635 | 183296
Range status and errors
Selected range
Filename C:\Users\Igor\Music\eac\John Zorn - Archery (Disc 1).wav
Peak level 98.8 %
Range quality 100.0 %
Test CRC 3DB54256
Copy CRC 3DB54256
Copy OK
No errors occurred
AccurateRip summary
Track 1 cannot be verified as accurate (confidence 1) [21AE5E23], AccurateRip returned [87434921]
Track 2 cannot be verified as accurate (confidence 1) [ABB28666], AccurateRip returned [33A57B18]
No tracks could be verified as accurate
You may have a different pressing from the one(s) in the database
End of status report
 
EAC Report (Disc 2)
Exact Audio Copy V0.99 prebeta 5 from 4. May 2009
EAC extraction logfile from 12. February 2010, 21:16
John Zorn / Archery (Disc 2)
Used drive : hp DVD-RAM GH40L Adapter: 0 ID: 1
Read mode : Secure
Utilize accurate stream : Yes
Defeat audio cache : Yes
Make use of C2 pointers : No
Read offset correction : 667
Overread into Lead-In and Lead-Out : No
Fill up missing offset samples with silence : Yes
Delete leading and trailing silent blocks : No
Null samples used in CRC calculations : Yes
Used interface : Installed external ASPI interface
Used output format : User Defined Encoder
Selected bitrate : 1024 kBit/s
Quality : High
Add ID3 tag : No
Command line compressor : C:\Program Files\Exact Audio Copy\Flac\flac.exe
Additional command line options : -6 -V -T "ARTIST=%a" -T "TITLE=%t" -T "ALBUM=%g" -T "DATE=%y" -T "TRACKNUMBER=%n" -T "GENRE=%m" -T "COMMENT=EAC FLAC -6" %s
TOC of the extracted CD
Track | Start | Length | Start sector | End sector
---------------------------------------------------------
1 | 0:00.00 | 23:52.70 | 0 | 107469
2 | 23:52.70 | 23:30.27 | 107470 | 213246
Range status and errors
Selected range
Filename C:\Users\Igor\Music\eac\John Zorn - Archery (Disc 2).wav
Peak level 98.8 %
Range quality 100.0 %
Test CRC 8F5D9BAA
Copy CRC 8F5D9BAA
Copy OK
No errors occurred
AccurateRip summary
Track 1 cannot be verified as accurate (confidence 1) [D97EE618], AccurateRip returned [F6FA61F3]
Track 2 cannot be verified as accurate (confidence 1) [13DF63CF], AccurateRip returned [963D8C2C]
No tracks could be verified as accurate
You may have a different pressing from the one(s) in the database
End of status report
По всем вопросам пишите личное сообщение пользователю M0p94ok.
20:04
129
Нет комментариев. Ваш будет первым!