Вы используете незарегистрированную версию компонента "Вкладки"!

Поиск

(Avant-Garde, Free Improvisation, Plainisphare) [CD] KuttelDaddelDu (Urs Bloechlinger, Jacques Demierre, Olivier Magnenat) - You Need It - 1993, FLAC (tracks+.cue), lossless

(Avant-Garde, Free Improvisation, Plainisphare) [CD] KuttelDaddelDu (Urs Bloechlinger, Jacques Demierre, Olivier Magnenat) - You Need It - 1993, FLAC (tracks+.cue), lossless
Треклист:
KuttelDaddelDu / You Need It
Жанр: Avant-Garde, Free Improvisation, Plainisphare
Носитель: CD
Страна-производитель диска (релиза): Switzerland
Год издания: 1993
Издатель (лейбл): Plainisphare
Номер по каталогу: PL 1267-83 CD
Аудиокодек: FLAC (*.flac)
Тип рипа: tracks+.cue
Битрейт аудио: lossless
Продолжительность: 46:26
Источник (релизер): я
Наличие сканов в содержимом раздачи: да
Треклист:
1. The Prince of Abessinia (Urs Blöchlinger) 4:44
2. 407 (Olivier Magnenat) 6:50
3. Take Seven (Jacques Demierre) 5:47
4. You Need It (Olivier Magnenat) 4:54
5. Collage 1 (Blöchlinger, Demierre, Magnenat) 2:45
6. Chapeau Claque (Urs Blöchlinger) 5:22
7. Hey Lee-be Lee (Urs Blöchlinger) 4:12
8. Collage 2 (Blöchlinger, Demierre, Magnenat) 3:15
9. Divine Surprise (Jacques Demierre) 8:38
Recorded October 1992 at Radio Studio Zurich (Switzerland).
Olivier Magnenat – Bass
Urs Blöchlinger – Alto and Sopranino Saxes
Jacques Demierre – Piano
 
Лог создания рипа
Exact Audio Copy V1.0 beta 3 from 29. August 2011
EAC extraction logfile from 25. June 2014, 17:40
KuttelDaddelDu / You Need It
Used drive : SlimtypeeNAU508 5 Adapter: 1 ID: 0
Read mode : Secure
Utilize accurate stream : Yes
Defeat audio cache : Yes
Make use of C2 pointers : No
Read offset correction : 6
Overread into Lead-In and Lead-Out : No
Fill up missing offset samples with silence : Yes
Delete leading and trailing silent blocks : No
Null samples used in CRC calculations : Yes
Used interface : Native Win32 interface for Win NT & 2000
Gap handling : Appended to previous track
Used output format : User Defined Encoder
Selected bitrate : 768 kBit/s
Quality : High
Add ID3 tag : No
Command line compressor : C:\Program Files (x86)\Exact Audio Copy\Flac\flac.exe
Additional command line options : -8 -V -T "ARTIST=%artist%" -T "TITLE=%title%" -T "ALBUM=%albumtitle%" -T "DATE=%year%" -T "TRACKNUMBER=%tracknr%" -T "TOTALTRACKS=%numtracks%" -T "GENRE=%genre%" -T "ALBUMARTIST=%albumartist%" -T "ALBUM ARTIST=%albumartist%" -T "COMMENT=EAC Secure Mode, Test & Copy, AccurateRip, FLAC -8" %source%
TOC of the extracted CD
Track | Start | Length | Start sector | End sector
---------------------------------------------------------
1 | 0:00.00 | 4:44.18 | 0 | 21317
2 | 4:44.18 | 6:49.52 | 21318 | 52044
3 | 11:33.70 | 5:47.15 | 52045 | 78084
4 | 17:21.10 | 4:53.48 | 78085 | 100107
5 | 22:14.58 | 2:45.00 | 100108 | 112482
6 | 24:59.58 | 5:22.10 | 112483 | 136642
7 | 30:21.68 | 4:11.47 | 136643 | 155514
8 | 34:33.40 | 3:15.00 | 155515 | 170139
9 | 37:48.40 | 8:37.40 | 170140 | 208954
Track 1
Filename C:\EAC rips\01 - The Prince of Abessinia.wav
Pre-gap length 0:00:02.00
Peak level 37.3 %
Extraction speed 2.2 X
Track quality 100.0 %
Test CRC 1FC101E4
Copy CRC 1FC101E4
Track not present in AccurateRip database
Copy OK
Track 2
Filename C:\EAC rips\02 - 407.wav
Peak level 49.2 %
Extraction speed 2.3 X
Track quality 99.9 %
Test CRC E47C2ED7
Copy CRC E47C2ED7
Track not present in AccurateRip database
Copy OK
Track 3
Filename C:\EAC rips\03 - Take Seven.wav
Pre-gap length 0:00:01.20
Peak level 50.5 %
Extraction speed 2.9 X
Track quality 100.0 %
Test CRC 87EABC45
Copy CRC 87EABC45
Track not present in AccurateRip database
Copy OK
Track 4
Filename C:\EAC rips\04 - You Need It.wav
Peak level 56.9 %
Extraction speed 3.1 X
Track quality 100.0 %
Test CRC 45C07E32
Copy CRC 45C07E32
Track not present in AccurateRip database
Copy OK
Track 5
Filename C:\EAC rips\05 - Collage 1.wav
Peak level 77.3 %
Extraction speed 2.3 X
Track quality 99.9 %
Test CRC E7262924
Copy CRC E7262924
Track not present in AccurateRip database
Copy OK
Track 6
Filename C:\EAC rips\06 - Chapeau Claque.wav
Peak level 57.3 %
Extraction speed 3.3 X
Track quality 100.0 %
Test CRC 60A21DBF
Copy CRC 60A21DBF
Track not present in AccurateRip database
Copy OK
Track 7
Filename C:\EAC rips\07 - Hey Lee-be Lee.wav
Pre-gap length 0:00:02.05
Peak level 45.7 %
Extraction speed 2.9 X
Track quality 99.9 %
Test CRC C84F3C2F
Copy CRC C84F3C2F
Track not present in AccurateRip database
Copy OK
Track 8
Filename C:\EAC rips\08 - Collage 2.wav
Pre-gap length 0:00:01.33
Peak level 53.7 %
Extraction speed 3.5 X
Track quality 100.0 %
Test CRC 9A9EF940
Copy CRC 9A9EF940
Track not present in AccurateRip database
Copy OK
Track 9
Filename C:\EAC rips\09 - Divine Surprise.wav
Peak level 56.3 %
Extraction speed 4.1 X
Track quality 100.0 %
Test CRC E4920CA5
Copy CRC E4920CA5
Track not present in AccurateRip database
Copy OK
None of the tracks are present in the AccurateRip database
No errors occurred
End of status report
---- CUETools DB Plugin V2.1.4
[CTDB TOCID: ldY.KQmY0.AqSjWSD3DBmybRyYc-] disk not present in database
Submit result: ldY.KQmY0.AqSjWSD3DBmybRyYc- has been uploaded
==== Log checksum 8181011F1DDBAD6375D76DD2790AFAD0725C4ED7AE16C121F508E26031020EEA ====
 
Содержание индексной карты (.CUE)
REM GENRE Jazz
REM DATE 1993
REM DISCID 690AE209
REM COMMENT "ExactAudioCopy v1.0b3"
PERFORMER "KuttelDaddelDu"
TITLE "You Need It"
FILE "01 - The Prince of Abessinia.wav" WAVE
TRACK 01 AUDIO
TITLE "The Prince of Abessinia"
PERFORMER "KuttelDaddelDu"
INDEX 01 00:00:00
FILE "02 - 407.wav" WAVE
TRACK 02 AUDIO
TITLE "407"
PERFORMER "KuttelDaddelDu"
INDEX 01 00:00:00
TRACK 03 AUDIO
TITLE "Take Seven"
PERFORMER "KuttelDaddelDu"
INDEX 00 06:48:32
FILE "03 - Take Seven.wav" WAVE
INDEX 01 00:00:00
FILE "04 - You Need It.wav" WAVE
TRACK 04 AUDIO
TITLE "You Need It"
PERFORMER "KuttelDaddelDu"
INDEX 01 00:00:00
FILE "05 - Collage 1.wav" WAVE
TRACK 05 AUDIO
TITLE "Collage 1"
PERFORMER "KuttelDaddelDu"
INDEX 01 00:00:00
FILE "06 - Chapeau Claque.wav" WAVE
TRACK 06 AUDIO
TITLE "Chapeau Claque"
PERFORMER "KuttelDaddelDu"
INDEX 01 00:00:00
TRACK 07 AUDIO
TITLE "Hey Lee-be Lee"
PERFORMER "KuttelDaddelDu"
INDEX 00 05:20:05
FILE "07 - Hey Lee-be Lee.wav" WAVE
INDEX 01 00:00:00
TRACK 08 AUDIO
TITLE "Collage 2"
PERFORMER "KuttelDaddelDu"
INDEX 00 04:10:14
FILE "08 - Collage 2.wav" WAVE
INDEX 01 00:00:00
FILE "09 - Divine Surprise.wav" WAVE
TRACK 09 AUDIO
TITLE "Divine Surprise"
PERFORMER "KuttelDaddelDu"
INDEX 01 00:00:00
Доп. информация: The first album of KuttelDaddelDu, "Live in Lausanne", can be found here.
По всем вопросам пишите личное сообщение пользователю M0p94ok.
09:50
141
Нет комментариев. Ваш будет первым!