Вы используете незарегистрированную версию компонента "Вкладки"!

Поиск

(Avant-Garde, Free Improvisation) Philippe Lauzier, Pierre-Yves Martel, Kim Myhr, Martin Tetreault - Disparition de l'usine ephemere {Ambiances Magnetiques AM 181, Canada} - 2008, FLAC (tracks+.cue) lossless

Треклист:
Philippe Lauzier, Pierre-Yves Martel, Kim Myhr, Martin Tétreault - Disparition de l’usine éphémère
Жанр: Avant-Garde, Free Improvisation
Страна-производитель диска: Canada
Год издания диска: 2008
Издатель (лейбл): Ambiances Magnétiques
Номер по каталогу: AM 181
Аудио кодек: FLAC (*.flac)
Тип рипа: tracks+.cue
Битрейт аудио: lossless
Продолжительность: 00:36:24
Источник (релизер): sashulcha
Наличие сканов в содержимом раздачи: нет (front scan only)
Треклист:
01. Traitement thermique
02. Engrenage
03. Électro-polissage
04. État de surface
05. Gestion des ressources humaines
06. Fonderie
07. Passage cylindrique
08. Rouleau compresseur
09. Assemblage
10. Chantier naval
Personnel:
Philippe Lauzier - alto saxophone, bass clarinet, preparations
Pierre-Yves Martel - viola de gambe + objects + preparations
Kim Myhr - acoustic guitar + objets + preparations
Martin Tétreault - defective turntable, bras, surfaces
 
Лог создания рипа (EAC Log)
Exact Audio Copy V0.99 prebeta 5 from 4. May 2009
EAC extraction logfile from 5. April 2010, 13:34
Philippe Lauzier, Pierre-Yves Martel, Kim Myhr, Martin Tйtreault / Disparition de l’usine йphйm?re
Used drive : _NEC DVD_RW ND-3540A Adapter: 1 ID: 0
Read mode : Secure
Utilize accurate stream : Yes
Defeat audio cache : Yes
Make use of C2 pointers : No
Read offset correction : 48
Overread into Lead-In and Lead-Out : No
Fill up missing offset samples with silence : Yes
Delete leading and trailing silent blocks : No
Null samples used in CRC calculations : Yes
Used interface : Native Win32 interface for Win NT & 2000
Gap handling : Appended to previous track
Used output format : User Defined Encoder
Selected bitrate : 768 kBit/s
Quality : High
Add ID3 tag : No
Command line compressor : C:\Program Files\Exact Audio Copy\FLAC\FLAC.EXE
Additional command line options : -8 -V -T "ARTIST=%a" -T "TITLE=%t" -T "ALBUM=%g" -T "DATE=%y" -T "TRACKNUMBER=%n" -T "GENRE=%m" -T "COMMENT=%e" %s -o %d
TOC of the extracted CD
Track | Start | Length | Start sector | End sector
---------------------------------------------------------
1 | 0:00.00 | 5:39.23 | 0 | 25447
2 | 5:39.23 | 2:48.40 | 25448 | 38087
3 | 8:27.63 | 2:31.24 | 38088 | 49436
4 | 10:59.12 | 3:32.38 | 49437 | 65374
5 | 14:31.50 | 3:22.32 | 65375 | 80556
6 | 17:54.07 | 4:34.63 | 80557 | 101169
7 | 22:28.70 | 2:03.06 | 101170 | 110400
8 | 24:32.01 | 3:07.65 | 110401 | 124490
9 | 27:39.66 | 2:37.50 | 124491 | 136315
10 | 30:17.41 | 6:07.18 | 136316 | 163858
Track 1
Filename E:\torrents\Philippe Lauzier, Pierre-Yves Martel, Kim Myhr, Martin Tйtreault - 2008 - Disparition de l’usine йphйm re\01 Traitement thermique.wav
Pre-gap length 0:00:02.00
Peak level 94.0 %
Track quality 100.0 %
Test CRC E19D967C
Copy CRC E19D967C
Track not present in AccurateRip database
Copy OK
Track 2
Filename E:\torrents\Philippe Lauzier, Pierre-Yves Martel, Kim Myhr, Martin Tйtreault - 2008 - Disparition de l’usine йphйm re\02 Enrenage.wav
Peak level 98.8 %
Track quality 100.0 %
Test CRC 68669E8D
Copy CRC 68669E8D
Track not present in AccurateRip database
Copy OK
Track 3
Filename E:\torrents\Philippe Lauzier, Pierre-Yves Martel, Kim Myhr, Martin Tйtreault - 2008 - Disparition de l’usine йphйm re\03 Йlectro-polissage.wav
Peak level 79.1 %
Track quality 100.0 %
Test CRC E130E272
Copy CRC E130E272
Track not present in AccurateRip database
Copy OK
Track 4
Filename E:\torrents\Philippe Lauzier, Pierre-Yves Martel, Kim Myhr, Martin Tйtreault - 2008 - Disparition de l’usine йphйm re\04 Йtat de surface.wav
Peak level 98.8 %
Track quality 99.9 %
Test CRC 2F916688
Copy CRC 2F916688
Track not present in AccurateRip database
Copy OK
Track 5
Filename E:\torrents\Philippe Lauzier, Pierre-Yves Martel, Kim Myhr, Martin Tйtreault - 2008 - Disparition de l’usine йphйm re\05 Gestion des ressources humaines.wav
Peak level 98.8 %
Track quality 100.0 %
Test CRC 6E1DBA54
Copy CRC 6E1DBA54
Track not present in AccurateRip database
Copy OK
Track 6
Filename E:\torrents\Philippe Lauzier, Pierre-Yves Martel, Kim Myhr, Martin Tйtreault - 2008 - Disparition de l’usine йphйm re\06 Fonderie.wav
Peak level 98.1 %
Track quality 100.0 %
Test CRC BEF3F8D1
Copy CRC BEF3F8D1
Track not present in AccurateRip database
Copy OK
Track 7
Filename E:\torrents\Philippe Lauzier, Pierre-Yves Martel, Kim Myhr, Martin Tйtreault - 2008 - Disparition de l’usine йphйm re\07 Passage cylindrique.wav
Peak level 79.6 %
Track quality 100.0 %
Test CRC 4E77D10D
Copy CRC 4E77D10D
Track not present in AccurateRip database
Copy OK
Track 8
Filename E:\torrents\Philippe Lauzier, Pierre-Yves Martel, Kim Myhr, Martin Tйtreault - 2008 - Disparition de l’usine йphйm re\08 Rouleau compresseur.wav
Peak level 98.8 %
Track quality 100.0 %
Test CRC CE50DBB0
Copy CRC CE50DBB0
Track not present in AccurateRip database
Copy OK
Track 9
Filename E:\torrents\Philippe Lauzier, Pierre-Yves Martel, Kim Myhr, Martin Tйtreault - 2008 - Disparition de l’usine йphйm re\09 Assemblage.wav
Peak level 90.7 %
Track quality 100.0 %
Test CRC E69A532C
Copy CRC E69A532C
Track not present in AccurateRip database
Copy OK
Track 10
Filename E:\torrents\Philippe Lauzier, Pierre-Yves Martel, Kim Myhr, Martin Tйtreault - 2008 - Disparition de l’usine йphйm re\10 Chantier naval.wav
Peak level 89.4 %
Track quality 100.0 %
Test CRC FE0E07F8
Copy CRC FE0E07F8
Track not present in AccurateRip database
Copy OK
None of the tracks are present in the AccurateRip database
No errors occurred
End of status report
 
Содержание индексной карты (.CUE)
REM GENRE improv
REM DATE 2008
REM DISCID 7F08880A
REM COMMENT "ExactAudioCopy v0.99pb5"
PERFORMER "Philippe Lauzier, Pierre-Yves Martel, Kim Myhr, Martin Tetreault"
TITLE "Disparition de l'usine ephemere"
FILE "01 Traitement thermique.wav" WAVE
TRACK 01 AUDIO
TITLE "Traitement thermique"
PERFORMER "Philippe Lauzier, Pierre-Yves Martel, Kim Myhr, Martin Tetreault"
ISRC 000000000000
FLAGS DCP
INDEX 01 00:00:00
FILE "02 Enrenage.wav" WAVE
TRACK 02 AUDIO
TITLE "Enrenage"
PERFORMER "Philippe Lauzier, Pierre-Yves Martel, Kim Myhr, Martin Tetreault"
ISRC 000000000000
FLAGS DCP
INDEX 01 00:00:00
FILE "03 Electro-polissage.wav" WAVE
TRACK 03 AUDIO
TITLE "Electro-polissage"
PERFORMER "Philippe Lauzier, Pierre-Yves Martel, Kim Myhr, Martin Tetreault"
ISRC 000000000000
FLAGS DCP
INDEX 01 00:00:00
FILE "04 Etat de surface.wav" WAVE
TRACK 04 AUDIO
TITLE "Etat de surface"
PERFORMER "Philippe Lauzier, Pierre-Yves Martel, Kim Myhr, Martin Tetreault"
ISRC 000000000000
FLAGS DCP
INDEX 01 00:00:00
FILE "05 Gestion des ressources humaines.wav" WAVE
TRACK 05 AUDIO
TITLE "Gestion des ressources humaines"
PERFORMER "Philippe Lauzier, Pierre-Yves Martel, Kim Myhr, Martin Tetreault"
ISRC 000000000000
FLAGS DCP
INDEX 01 00:00:00
FILE "06 Fonderie.wav" WAVE
TRACK 06 AUDIO
TITLE "Fonderie"
PERFORMER "Philippe Lauzier, Pierre-Yves Martel, Kim Myhr, Martin Tetreault"
ISRC 000000000000
FLAGS DCP
INDEX 01 00:00:00
FILE "07 Passage cylindrique.wav" WAVE
TRACK 07 AUDIO
TITLE "Passage cylindrique"
PERFORMER "Philippe Lauzier, Pierre-Yves Martel, Kim Myhr, Martin Tetreault"
ISRC 000000000000
FLAGS DCP
INDEX 01 00:00:00
FILE "08 Rouleau compresseur.wav" WAVE
TRACK 08 AUDIO
TITLE "Rouleau compresseur"
PERFORMER "Philippe Lauzier, Pierre-Yves Martel, Kim Myhr, Martin Tetreault"
ISRC 000000000000
FLAGS DCP
INDEX 01 00:00:00
FILE "09 Assemblage.wav" WAVE
TRACK 09 AUDIO
TITLE "Assemblage"
PERFORMER "Philippe Lauzier, Pierre-Yves Martel, Kim Myhr, Martin Tetreault"
ISRC 000000000000
FLAGS DCP
INDEX 01 00:00:00
FILE "10 Chantier naval.wav" WAVE
TRACK 10 AUDIO
TITLE "Chantier naval"
PERFORMER "Philippe Lauzier, Pierre-Yves Martel, Kim Myhr, Martin Tetreault"
ISRC 000000000000
FLAGS DCP
INDEX 01 00:00:00
 
Об альбоме
Disparition de l’usine éphémère is the first release of a quartet consisting of prominent improvisers from Québec and Norway. The peculiar combination of old and new instruments renders a poetic image of a faded, bygone industrial plant.
The quartet works within both narrow and broad acoustic areas: sometimes focusing on a tiny vibration, other times a polyphonic orchestra of pipes, pumps, wheels, objects, bells and motors ring together: a multiplicity of cogwheels spinning in different tempos, all working together to create a large machine of acoustic and electronic sounds.
RUSSIAN: (by axl559)
Disparition de l’usine éphémère - это первый релиз квартета, состоящего из видных импровизационных музыкантов из Квебека и Норвегии. Своеобразное сочетание старых и новых инструментов создаёт поэтический образ допотопных, забытых индустриальных фабрик.
Квартет работает как в узких, так и в широких акустических областях. Иногда внимание фокусируется на микрозвуках, иногда на полифонии оркестра труб, насосов и колес. Колокола и моторы гремят вместе, множество шестерён вращаются с различной скоростью - всё это работает сообща, чтобы создать огромную машину акустических и электронных звуков.
Any questions -> support@pro-jazz.com. По всем вопросам пишите -> support@pro-jazz.com
18:46
181
Нет комментариев. Ваш будет первым!