Вы используете незарегистрированную версию компонента "Вкладки"!

Поиск

(Avant-Garde / Free Improvisation / Norwegian Folk) Isglem (Terje Isungset / Karl Seglem) - Discography (4 CDs), FLAC (image+.cue), lossless

(Avant-Garde / Free Improvisation / Norwegian Folk) Isglem (Terje Isungset / Karl Seglem) - Discography (4 CDs), FLAC (image+.cue), lossless
Треклист:
Isglem Discography (4 CDs)
Жанр: Avant-Garde / Free Improvisation / Norwegian Folk

Terje Isungset drums, percussion, ram's horn, voice
Karl Seglem tenor saxophone, ram's horn, electronics, voice

 
Info
Isglem is one of Norway´s leading groups working with freely improvised music. The duo´s music, their many live gigs and their three albums, is based on elements drawn from Norwegian folk music, via Afro-American free jazz tradition, to modern European music. Since 1987 Isglem has created assorted soundscapes, from the most energetically and expressive sound blasts to serene and moody intimations, combined with a unique personal sound, and with a distinctive identity.



Rom
Год выпуска диска: 1991
Производитель диска: NOR-CD 9102 (Norway)
Аудио кодек: FLAC
Тип рипа: image+.cue
Битрейт аудио: lossless
Продолжительность: 46:43
1. Rom
2. Den Sjenerte
3. Klippen
4. Hesten
5. 800 M.O.H.
6. Asbest
7. Einetale
8. Billa
9. Planet
10. Einetale
11. Januar 1991
12. Oljen
13. Raudt Lys
14. Miklagard
Recorded live at Lien Grendahus / Geilo 18-20 October 1990. No overbubs.
 
EAC Report
Exact Audio Copy V0.99 prebeta 5 from 4. May 2009
EAC extraction logfile from 26. September 2009, 13:42
Isglem / Rom
Used drive : TSSTcorpCD/DVDW SH-S182M Adapter: 2 ID: 0
Read mode : Secure
Utilize accurate stream : Yes
Defeat audio cache : Yes
Make use of C2 pointers : No
Read offset correction : 6
Overread into Lead-In and Lead-Out : No
Fill up missing offset samples with silence : Yes
Delete leading and trailing silent blocks : No
Null samples used in CRC calculations : Yes
Used interface : Installed external ASPI interface
Used output format : User Defined Encoder
Selected bitrate : 1024 kBit/s
Quality : High
Add ID3 tag : No
Command line compressor : C:\Program Files\FLAC\flac.exe
Additional command line options : -6 -V -T "ARTIST=%a" -T "TITLE=%t" -T "ALBUM=%g" -T "DATE=%y" -T "TRACKNUMBER=%n" -T "GENRE=%m" -T "COMMENT=EAC FLAC -6" %s
TOC of the extracted CD
Track | Start | Length | Start sector | End sector
---------------------------------------------------------
1 | 0:00.00 | 4:36.15 | 0 | 20714
2 | 4:36.15 | 2:43.60 | 20715 | 32999
3 | 7:20.00 | 5:44.63 | 33000 | 58862
4 | 13:04.63 | 2:38.15 | 58863 | 70727
5 | 15:43.03 | 1:53.72 | 70728 | 79274
6 | 17:37.00 | 6:53.30 | 79275 | 110279
7 | 24:30.30 | 2:41.70 | 110280 | 122424
8 | 27:12.25 | 1:11.25 | 122425 | 127774
9 | 28:23.50 | 3:35.38 | 127775 | 143937
10 | 31:59.13 | 4:36.45 | 143938 | 164682
11 | 36:35.58 | 3:14.72 | 164683 | 179304
12 | 39:50.55 | 1:43.30 | 179305 | 187059
13 | 41:34.10 | 3:24.45 | 187060 | 202404
14 | 44:58.55 | 1:44.45 | 202405 | 210249
Range status and errors
Selected range
Filename C:\Documents and Settings\Igor\My Documents\My Music\eac\Isglem - Rom.wav
Peak level 95.9 %
Range quality 100.0 %
Test CRC 2BF9D1D9
Copy CRC 2BF9D1D9
Copy OK
No errors occurred
AccurateRip summary
Track 1 accurately ripped (confidence 1) [AA8D76AF]
Track 2 accurately ripped (confidence 1) [A7A4547E]
Track 3 accurately ripped (confidence 1) [EF167478]
Track 4 accurately ripped (confidence 1) [B2EF92BF]
Track 5 accurately ripped (confidence 1) [8951302D]
Track 6 accurately ripped (confidence 1) [88997271]
Track 7 accurately ripped (confidence 1) [05389A40]
Track 8 accurately ripped (confidence 1) [F06952EA]
Track 9 accurately ripped (confidence 1) [F94ED7B1]
Track 10 accurately ripped (confidence 1) [9862919E]
Track 11 accurately ripped (confidence 1) [170AD0A0]
Track 12 accurately ripped (confidence 1) [A5B09FA1]
Track 13 accurately ripped (confidence 1) [8716E666]
Track 14 accurately ripped (confidence 1) [8783F5BF]
All tracks accurately ripped
End of status report



To Steg
Год выпуска диска: 1992
Производитель диска: NOR-CD 9204 (Norway)
Аудио кодек: FLAC
Тип рипа: image+.cue
Битрейт аудио: lossless
Продолжительность: 42:56
1. To Steg
2. Fortare
3. Tind
4. Blå
5. Bestefarvalsen
6. God Gang
7. Menn Mørk
8. Dal
9. Gjetaren
10. Chili
11. Ozon
12. Lenger Sør
13. Vipp
Recorded in Grieghallen Soundstudio, Bergen, December 1991 and March 1992.
Percussion overdubs on "Gjetaren": birch pins, sheep bells, bass drum and voice; on "Tind": sheep bells, voice and birch pins.
 
EAC Report
Exact Audio Copy V0.99 prebeta 5 from 4. May 2009
EAC extraction logfile from 26. September 2009, 13:19
Isglem / To Steg
Used drive : TSSTcorpCD/DVDW SH-S182M Adapter: 2 ID: 0
Read mode : Secure
Utilize accurate stream : Yes
Defeat audio cache : Yes
Make use of C2 pointers : No
Read offset correction : 6
Overread into Lead-In and Lead-Out : No
Fill up missing offset samples with silence : Yes
Delete leading and trailing silent blocks : No
Null samples used in CRC calculations : Yes
Used interface : Installed external ASPI interface
Used output format : User Defined Encoder
Selected bitrate : 1024 kBit/s
Quality : High
Add ID3 tag : No
Command line compressor : C:\Program Files\FLAC\flac.exe
Additional command line options : -6 -V -T "ARTIST=%a" -T "TITLE=%t" -T "ALBUM=%g" -T "DATE=%y" -T "TRACKNUMBER=%n" -T "GENRE=%m" -T "COMMENT=EAC FLAC -6" %s
TOC of the extracted CD
Track | Start | Length | Start sector | End sector
---------------------------------------------------------
1 | 0:00.00 | 3:14.02 | 0 | 14551
2 | 3:14.02 | 2:57.13 | 14552 | 27839
3 | 6:11.15 | 4:10.62 | 27840 | 46651
4 | 10:22.02 | 4:19.30 | 46652 | 66106
5 | 14:41.32 | 3:18.43 | 66107 | 80999
6 | 18:00.00 | 2:26.70 | 81000 | 92019
7 | 20:26.70 | 3:24.05 | 92020 | 107324
8 | 23:51.00 | 3:20.12 | 107325 | 122336
9 | 27:11.12 | 2:26.28 | 122337 | 133314
10 | 29:37.40 | 2:41.72 | 133315 | 145461
11 | 32:19.37 | 2:42.25 | 145462 | 157636
12 | 35:01.62 | 4:01.23 | 157637 | 175734
13 | 39:03.10 | 3:52.67 | 175735 | 193201
Range status and errors
Selected range
Filename C:\Documents and Settings\Igor\My Documents\My Music\eac\Isglem - To Steg.wav
Peak level 97.7 %
Range quality 100.0 %
Test CRC 22DA0BEA
Copy CRC 22DA0BEA
Copy OK
No errors occurred
AccurateRip summary
Track 1 accurately ripped (confidence 1) [0575F386]
Track 2 accurately ripped (confidence 1) [CE573125]
Track 3 accurately ripped (confidence 1) [AE0D7FDF]
Track 4 accurately ripped (confidence 1) [4CD96030]
Track 5 accurately ripped (confidence 1) [59F28FA8]
Track 6 accurately ripped (confidence 1) [A794E86F]
Track 7 accurately ripped (confidence 1) [82443D4C]
Track 8 accurately ripped (confidence 1) [FA33DEE4]
Track 9 accurately ripped (confidence 1) [393EA3ED]
Track 10 accurately ripped (confidence 1) [D3793AA2]
Track 11 accurately ripped (confidence 1) [CB2F22F0]
Track 12 accurately ripped (confidence 1) [65DBA7BE]
Track 13 accurately ripped (confidence 1) [49BECA58]
All tracks accurately ripped
End of status report



Null G
Год выпуска диска: 1996
Производитель диска: NOR-CD 9615 (Norway)
Аудио кодек: FLAC
Тип рипа: image+.cue
Битрейт аудио: lossless
Продолжительность:
1. Månedans
2. Sang I Sivet
3. Under Isen
4. Cola Cola Blakken
5. Under Berget
6. Kokogrille
7. Ein Som Er Død
8. Afrikas Måne
9. Mellom Fjell
10. Gamal Indianarsang
Recorded in Trondheim, Norway, during 5 late evenings in October 1995.
 
EAC Report
Exact Audio Copy V0.99 prebeta 5 from 4. May 2009
EAC extraction logfile from 26. September 2009, 14:20
Isglem / Null G
Used drive : TSSTcorpCD/DVDW SH-S182M Adapter: 2 ID: 0
Read mode : Secure
Utilize accurate stream : Yes
Defeat audio cache : Yes
Make use of C2 pointers : No
Read offset correction : 6
Overread into Lead-In and Lead-Out : No
Fill up missing offset samples with silence : Yes
Delete leading and trailing silent blocks : No
Null samples used in CRC calculations : Yes
Used interface : Installed external ASPI interface
Used output format : User Defined Encoder
Selected bitrate : 1024 kBit/s
Quality : High
Add ID3 tag : No
Command line compressor : C:\Program Files\FLAC\flac.exe
Additional command line options : -6 -V -T "ARTIST=%a" -T "TITLE=%t" -T "ALBUM=%g" -T "DATE=%y" -T "TRACKNUMBER=%n" -T "GENRE=%m" -T "COMMENT=EAC FLAC -6" %s
TOC of the extracted CD
Track | Start | Length | Start sector | End sector
---------------------------------------------------------
1 | 0:00.00 | 2:43.72 | 0 | 12296
2 | 2:43.72 | 4:35.15 | 12297 | 32936
3 | 7:19.12 | 2:51.30 | 32937 | 45791
4 | 10:10.42 | 4:04.25 | 45792 | 64116
5 | 14:14.67 | 2:36.13 | 64117 | 75829
6 | 16:51.05 | 2:00.47 | 75830 | 84876
7 | 18:51.52 | 5:36.48 | 84877 | 110124
8 | 24:28.25 | 3:25.62 | 110125 | 125561
9 | 27:54.12 | 1:54.33 | 125562 | 134144
10 | 29:48.45 | 4:06.02 | 134145 | 152596
Range status and errors
Selected range
Filename C:\Documents and Settings\Igor\My Documents\My Music\eac\Isglem - Null G.wav
Peak level 100.0 %
Range quality 100.0 %
Test CRC DE88009D
Copy CRC DE88009D
Copy OK
No errors occurred
AccurateRip summary
Track 1 accurately ripped (confidence 1) [3FF2C3EE]
Track 2 accurately ripped (confidence 1) [BC3A293D]
Track 3 accurately ripped (confidence 1) [099F1FEB]
Track 4 accurately ripped (confidence 1) [9BCEA030]
Track 5 accurately ripped (confidence 1) [93F5D506]
Track 6 accurately ripped (confidence 1) [4E863448]
Track 7 accurately ripped (confidence 1) [2C13E34E]
Track 8 accurately ripped (confidence 1) [36C4C4C6]
Track 9 accurately ripped (confidence 1) [5EBFB6CB]
Track 10 accurately ripped (confidence 1) [81207FBF]
All tracks accurately ripped
End of status report



Fire
Год выпуска диска: 2003
Производитель диска: NOR-CD 0343 (Norway)
Аудио кодек: FLAC
Тип рипа: image+.cue
Битрейт аудио: lossless
Продолжительность: 37:00
1. Glemis
2. Melsig
3. Glimse
4. Egsmil
5. Siglem
6. Egslim
7. Misgel
8. Lgisme
9. Smileg
10. Legmis
11. Imgles
12. Emglis
Recorded in 7 Etage, Oslo, December 2001
 
EAC Report
Exact Audio Copy V0.99 prebeta 5 from 4. May 2009
EAC extraction logfile from 26. September 2009, 14:55
Isglem / Fire
Used drive : TSSTcorpCD/DVDW SH-S182M Adapter: 2 ID: 0
Read mode : Secure
Utilize accurate stream : Yes
Defeat audio cache : Yes
Make use of C2 pointers : No
Read offset correction : 6
Overread into Lead-In and Lead-Out : No
Fill up missing offset samples with silence : Yes
Delete leading and trailing silent blocks : No
Null samples used in CRC calculations : Yes
Used interface : Installed external ASPI interface
Used output format : User Defined Encoder
Selected bitrate : 1024 kBit/s
Quality : High
Add ID3 tag : No
Command line compressor : C:\Program Files\FLAC\flac.exe
Additional command line options : -6 -V -T "ARTIST=%a" -T "TITLE=%t" -T "ALBUM=%g" -T "DATE=%y" -T "TRACKNUMBER=%n" -T "GENRE=%m" -T "COMMENT=EAC FLAC -6" %s
TOC of the extracted CD
Track | Start | Length | Start sector | End sector
---------------------------------------------------------
1 | 0:00.00 | 1:26.37 | 0 | 6486
2 | 1:26.37 | 3:35.20 | 6487 | 22631
3 | 5:01.57 | 1:18.24 | 22632 | 28505
4 | 6:20.06 | 4:23.03 | 28506 | 48233
5 | 10:43.09 | 3:20.17 | 48234 | 63250
6 | 14:03.26 | 2:16.64 | 63251 | 73514
7 | 16:20.15 | 0:56.73 | 73515 | 77787
8 | 17:17.13 | 2:27.36 | 77788 | 88848
9 | 19:44.49 | 5:54.47 | 88849 | 115445
10 | 25:39.21 | 4:13.01 | 115446 | 134421
11 | 29:52.22 | 2:04.26 | 134422 | 143747
12 | 31:56.48 | 5:03.46 | 143748 | 166518
Range status and errors
Selected range
Filename C:\Documents and Settings\Igor\My Documents\My Music\eac\Isglem - Fire.wav
Peak level 100.0 %
Range quality 100.0 %
Test CRC DF9A7770
Copy CRC DF9A7770
Copy OK
No errors occurred
AccurateRip summary
Track 1 accurately ripped (confidence 1) [8CD11883]
Track 2 accurately ripped (confidence 1) [655227E8]
Track 3 accurately ripped (confidence 1) [A5ACB904]
Track 4 accurately ripped (confidence 1) [5182DF59]
Track 5 accurately ripped (confidence 1) [6044743A]
Track 6 accurately ripped (confidence 1) [EF79E7BA]
Track 7 accurately ripped (confidence 1) [C18E88CD]
Track 8 accurately ripped (confidence 1) [580DBA4C]
Track 9 accurately ripped (confidence 1) [19B0EECE]
Track 10 accurately ripped (confidence 1) [546CA72F]
Track 11 accurately ripped (confidence 1) [BCB97F80]
Track 12 accurately ripped (confidence 1) [0595D912]
All tracks accurately ripped
End of status report
По всем вопросам пишите личное сообщение пользователю M0p94ok.
16:51
140
Нет комментариев. Ваш будет первым!