Вы используете незарегистрированную версию компонента "Вкладки"!

Поиск

(Avant Garde, Free Improvisation, Noise) Sophie Agnel, Lionel Marchetti, Jerome Noetinger - Rouge Gris Bruit - 2001, FLAC (tracks+.cue), lossless

Треклист:
Sophie Agnel, Lionel Marchetti, Jerome Noetinger - Rouge Gris Bruit
Жанр: Avant Garde, Free Improvisation, Noise
Год выпуска диска: 2001
Производитель диска: France (Potlatch)
Аудио кодек: FLAC
Тип рипа: tracks+.cue
Битрейт аудио: lossless
Продолжительность: 58.25
Трэклист:
1. Martin 1
2. Martin 2
3. Martin 3
4. silence
5. Après midi
6. silence
7. Epilogue
Доп. информация: Sophie Agnel : piano
Lionel Marchetti : micros, haut-parleurs, éléctroniques, Revox
Jérôme Noetinger : micros, haut-parleurs, éléctroniques, Revox
Удивительная, трогательная, в высшей степени интеллигентная музыка, впитавшая в себя все очарование фортепиано как инструмента, призванного рождать нежные и проникновенные гармонии, дополненное постмодернистким подходом к построению композиции и изрядно оттененное нойзом, который периодически занимает явно доминантные позиции, но при этом не претендует на постоянную диктатуру и остается чрезвычайно благосклонен и на удивление доброжелателен к слушателю, несмотря на свою дерзость и решительность.
рип из Сети
 
eac log
Exact Audio Copy V0.99 prebeta 5 from 4. May 2009
EAC extraction logfile from 16. January 2010, 11:22
Sophie Agnel, Lionel Marchetti, Jerome Noetinger / rouge gris bruit
Used drive : TSSTcorpDVD+-RW TS-T633A Adapter: 1 ID: 0
Read mode : Secure
Utilize accurate stream : Yes
Defeat audio cache : Yes
Make use of C2 pointers : No
Read offset correction : 6
Overread into Lead-In and Lead-Out : No
Fill up missing offset samples with silence : Yes
Delete leading and trailing silent blocks : No
Null samples used in CRC calculations : Yes
Used interface : Installed external ASPI interface
Gap handling : Appended to previous track
Used output format : User Defined Encoder
Selected bitrate : 768 kBit/s
Quality : High
Add ID3 tag : Yes
Command line compressor : C:\Program Files (x86)\Exact Audio Copy\FLAC\FLAC.EXE
Additional command line options : -6 -V -T "ARTIST=%a" -T "TITLE=%t" -T "ALBUM=%g" -T "DATE=%y" -T "TRACKNUMBER=%n" -T "GENRE=%m" -T "COMMENT=%e" %s -o %d
TOC of the extracted CD
Track | Start | Length | Start sector | End sector
---------------------------------------------------------
1 | 0:00.00 | 9:12.44 | 0 | 41443
2 | 9:12.44 | 7:58.54 | 41444 | 77347
3 | 17:11.23 | 21:16.39 | 77348 | 173086
4 | 38:27.62 | 0:33.59 | 173087 | 175620
5 | 39:01.46 | 14:25.68 | 175621 | 240563
6 | 53:27.39 | 0:09.72 | 240564 | 241310
7 | 53:37.36 | 4:47.58 | 241311 | 262893
Track 1
Filename C:\Users\Public\Slsk\+++ SLSK ARCHIVE\+ new adds - to be shunted to arbitrary genre assignments sooner or later\+++ NEW RIPS (eac + flac, usually)\Sophie Agnel, Lionel Marchetti, Jerome Noetinger - 2001 - rouge gris bruit\01 - Matin 1.wav
Pre-gap length 0:00:02.00
Peak level 100.0 %
Track quality 100.0 %
Copy CRC 0326A387
Track not present in AccurateRip database
Copy OK
Track 2
Filename C:\Users\Public\Slsk\+++ SLSK ARCHIVE\+ new adds - to be shunted to arbitrary genre assignments sooner or later\+++ NEW RIPS (eac + flac, usually)\Sophie Agnel, Lionel Marchetti, Jerome Noetinger - 2001 - rouge gris bruit\02 - Matin 2.wav
Peak level 100.0 %
Track quality 100.0 %
Copy CRC B3A1FCC3
Track not present in AccurateRip database
Copy OK
Track 3
Filename C:\Users\Public\Slsk\+++ SLSK ARCHIVE\+ new adds - to be shunted to arbitrary genre assignments sooner or later\+++ NEW RIPS (eac + flac, usually)\Sophie Agnel, Lionel Marchetti, Jerome Noetinger - 2001 - rouge gris bruit\03 - Matin 3.wav
Peak level 100.0 %
Track quality 100.0 %
Copy CRC 7F2351CD
Track not present in AccurateRip database
Copy OK
Track 4
Filename C:\Users\Public\Slsk\+++ SLSK ARCHIVE\+ new adds - to be shunted to arbitrary genre assignments sooner or later\+++ NEW RIPS (eac + flac, usually)\Sophie Agnel, Lionel Marchetti, Jerome Noetinger - 2001 - rouge gris bruit\04 - (silence).wav
Peak level 0.0 %
Track quality 100.0 %
Copy CRC CAFE249D
Track not present in AccurateRip database
Copy OK
Track 5
Filename C:\Users\Public\Slsk\+++ SLSK ARCHIVE\+ new adds - to be shunted to arbitrary genre assignments sooner or later\+++ NEW RIPS (eac + flac, usually)\Sophie Agnel, Lionel Marchetti, Jerome Noetinger - 2001 - rouge gris bruit\05 - Aprиs-midi.wav
Peak level 100.0 %
Track quality 100.0 %
Copy CRC 66935648
Track not present in AccurateRip database
Copy OK
Track 6
Filename C:\Users\Public\Slsk\+++ SLSK ARCHIVE\+ new adds - to be shunted to arbitrary genre assignments sooner or later\+++ NEW RIPS (eac + flac, usually)\Sophie Agnel, Lionel Marchetti, Jerome Noetinger - 2001 - rouge gris bruit\06 - (silence).wav
Peak level 0.0 %
Track quality 98.9 %
Copy CRC 28A1FA12
Track not present in AccurateRip database
Copy OK
Track 7
Filename C:\Users\Public\Slsk\+++ SLSK ARCHIVE\+ new adds - to be shunted to arbitrary genre assignments sooner or later\+++ NEW RIPS (eac + flac, usually)\Sophie Agnel, Lionel Marchetti, Jerome Noetinger - 2001 - rouge gris bruit\07 - Epilogue.wav
Peak level 100.0 %
Track quality 100.0 %
Copy CRC 36DF5F93
Track not present in AccurateRip database
Copy OK
None of the tracks are present in the AccurateRip database
No errors occurred
End of status report
 
cue
REM GENRE Avantgarde
REM DATE 2001
REM DISCID 4E0DB107
REM COMMENT "ExactAudioCopy v0.99pb5"
PERFORMER "Sophie Agnel, Lionel Marchetti, Jerome Noetinger"
TITLE "rouge gris bruit"
FILE "Sophie Agnel, Lionel Marchetti, Jerome Noetinger - 2001 - rouge gris bruit\01 - Matin 1.flac" WAVE
TRACK 01 AUDIO
TITLE "Matin 1"
PERFORMER "Sophie Agnel, Lionel Marchetti, Jerome Noetinger"
INDEX 01 00:00:00
FILE "Sophie Agnel, Lionel Marchetti, Jerome Noetinger - 2001 - rouge gris bruit\02 - Matin 2.flac" FLAC
TRACK 02 AUDIO
TITLE "Matin 2"
PERFORMER "Sophie Agnel, Lionel Marchetti, Jerome Noetinger"
INDEX 01 00:00:00
FILE "Sophie Agnel, Lionel Marchetti, Jerome Noetinger - 2001 - rouge gris bruit\03 - Matin 3.flac" FLAC
TRACK 03 AUDIO
TITLE "Matin 3"
PERFORMER "Sophie Agnel, Lionel Marchetti, Jerome Noetinger"
INDEX 01 00:00:00
FILE "Sophie Agnel, Lionel Marchetti, Jerome Noetinger - 2001 - rouge gris bruit\04 - (silence).flac" FLAC
TRACK 04 AUDIO
TITLE "(silence)"
PERFORMER "Sophie Agnel, Lionel Marchetti, Jerome Noetinger"
INDEX 01 00:00:00
FILE "Sophie Agnel, Lionel Marchetti, Jerome Noetinger - 2001 - rouge gris bruit\05 - Aprиs-midi.flac" FLAC
TRACK 05 AUDIO
TITLE "Aprиs-midi"
PERFORMER "Sophie Agnel, Lionel Marchetti, Jerome Noetinger"
INDEX 01 00:00:00
FILE "Sophie Agnel, Lionel Marchetti, Jerome Noetinger - 2001 - rouge gris bruit\06 - (silence).flac" FLAC
TRACK 06 AUDIO
TITLE "(silence)"
PERFORMER "Sophie Agnel, Lionel Marchetti, Jerome Noetinger"
INDEX 01 00:00:00
FILE "Sophie Agnel, Lionel Marchetti, Jerome Noetinger - 2001 - rouge gris bruit\07 - Epilogue.flac" FLAC
TRACK 07 AUDIO
TITLE "Epilogue"
PERFORMER "Sophie Agnel, Lionel Marchetti, Jerome Noetinger"
INDEX 01 00:00:00
По всем вопросам пишите личное сообщение пользователю M0p94ok.
21:41
174
Нет комментариев. Ваш будет первым!