Вы используете незарегистрированную версию компонента "Вкладки"!

Поиск

(Avant-Garde, Free Improvisation) Miya Masaoka, Audrey Chen, Hans Grusel, Kenta Nagai - Masaoka/Chen/Grusel/Nagai - 2010, FLAC (tracks+.cue), lossless

(Avant-Garde, Free Improvisation) Miya Masaoka, Audrey Chen, Hans Grusel, Kenta Nagai - Masaoka/Chen/Grusel/Nagai - 2010, FLAC (tracks+.cue), lossless
Треклист:
Miya Masaoka, Audrey Chen, Hans Grusel, Kenta Nagai / Masaoka/Chen/Grusel/Nagai
Жанр: Avant-Garde, Free Improvisation
Страна-производитель диска: US
Год издания диска: 2010
Издатель (лейбл): Resipiscent
Номер по каталогу: RSPT036
Аудиокодек: FLAC (*.flac)
Тип рипа: tracks+.cue
Битрейт аудио: lossless
Продолжительность: 70:54
Источник (релизер): what.cd (morgoth666)
Наличие сканов в содержимом раздачи: нет
Треклист:
1 Dialing 11:31
2 Fuse 10:22
3 Ligatures 15:28
4 Absence Of Territory 15:06
5 Traces Of Dust 4:21
6 Ligature (No. 2) 3:11
7 The Wretched 4:27
8 Rain Holed Roof 6:28
 
Лог создания рипа
X Lossless Decoder version 20100417 (117.4)
XLD extraction logfile from 2010-04-24 03:14:12 +0200
Masaoka-Chen-Grusel-Nagai / Masaoka/Chen/GrГјsel/Nagai
Used drive : HL-DT-ST DVDRAM GSA-4163B (revision A106)
Use cdparanoia mode : YES (CDParanoia III 10.2 engine)
Disable audio cache : OK for the drive with cache less than 2750KB
Make use of C2 pointers : NO
Read offset correction : 667
Max retry count : 100
TOC of the extracted CD
Track | Start | Length | Start sector | End sector
---------------------------------------------------------
1 | 00:00:00 | 11:30:62 | 0 | 51811
2 | 11:30:62 | 10:22:12 | 51812 | 98473
3 | 21:52:74 | 15:27:71 | 98474 | 168069
4 | 37:20:70 | 15:05:51 | 168070 | 235995
5 | 52:26:46 | 04:21:32 | 235996 | 255602
6 | 56:48:03 | 03:10:69 | 255603 | 269921
7 | 59:58:72 | 04:26:72 | 269922 | 289943
8 | 64:25:69 | 06:28:20 | 289944 | 319063
All Tracks
Album gain : -2.62 dB
Peak : 0.984314
Track 01
Filename : /Volumes/backup/XLD/01 Masaoka-Chen-Grusel-Nagai - Dialing.flac
Pre-gap length : 00:02:00
Track gain : -0.45 dB
Peak : 0.984253
CRC32 hash (test run) : 666F8999
CRC32 hash : 666F8999
CRC32 hash (skip zero) : 69BA89D7
AccurateRip signature : 25011B82
->Track not present in AccurateRip database.
Statistics
Read error : 0
Skipped (treated as error) : 0
Edge jitter error (maybe fixed) : 0
Atom jitter error (maybe fixed) : 0
Drift error (maybe fixed) : 0
Dropped bytes error (maybe fixed) : 0
Duplicated bytes error (maybe fixed) : 0
Inconsistency in error sectors : 0
Track 02
Filename : /Volumes/backup/XLD/02 Masaoka-Chen-Grusel-Nagai - Fuse.flac
Track gain : -4.25 dB
Peak : 0.984314
CRC32 hash (test run) : DC6401FC
CRC32 hash : DC6401FC
CRC32 hash (skip zero) : 037D0B09
AccurateRip signature : E4CB0100
->Track not present in AccurateRip database.
Statistics
Read error : 0
Skipped (treated as error) : 0
Edge jitter error (maybe fixed) : 0
Atom jitter error (maybe fixed) : 0
Drift error (maybe fixed) : 0
Dropped bytes error (maybe fixed) : 0
Duplicated bytes error (maybe fixed) : 0
Inconsistency in error sectors : 0
Track 03
Filename : /Volumes/backup/XLD/03 Masaoka-Chen-Grusel-Nagai - Ligatures.flac
Track gain : -0.95 dB
Peak : 0.984222
CRC32 hash (test run) : 77D910D3
CRC32 hash : 77D910D3
CRC32 hash (skip zero) : B27229EE
AccurateRip signature : 43FE6967
->Track not present in AccurateRip database.
Statistics
Read error : 0
Skipped (treated as error) : 0
Edge jitter error (maybe fixed) : 0
Atom jitter error (maybe fixed) : 0
Drift error (maybe fixed) : 0
Dropped bytes error (maybe fixed) : 0
Duplicated bytes error (maybe fixed) : 0
Inconsistency in error sectors : 0
Track 04
Filename : /Volumes/backup/XLD/04 Masaoka-Chen-Grusel-Nagai - Absence of Territory.flac
Pre-gap length : 00:03:00
Track gain : -4.82 dB
Peak : 0.984283
CRC32 hash (test run) : 8CB00022
CRC32 hash : 8CB00022
CRC32 hash (skip zero) : B866070D
AccurateRip signature : 55D08C0F
->Track not present in AccurateRip database.
Statistics
Read error : 0
Skipped (treated as error) : 0
Edge jitter error (maybe fixed) : 0
Atom jitter error (maybe fixed) : 0
Drift error (maybe fixed) : 0
Dropped bytes error (maybe fixed) : 0
Duplicated bytes error (maybe fixed) : 0
Inconsistency in error sectors : 0
Track 05
Filename : /Volumes/backup/XLD/05 Masaoka-Chen-Grusel-Nagai - Traces of Dust.flac
Pre-gap length : 00:02:00
Track gain : 0.76 dB
Peak : 0.836334
CRC32 hash (test run) : E7A1C460
CRC32 hash : E7A1C460
CRC32 hash (skip zero) : 59C8A1FB
AccurateRip signature : 78AECE42
->Track not present in AccurateRip database.
Statistics
Read error : 0
Skipped (treated as error) : 0
Edge jitter error (maybe fixed) : 0
Atom jitter error (maybe fixed) : 0
Drift error (maybe fixed) : 0
Dropped bytes error (maybe fixed) : 0
Duplicated bytes error (maybe fixed) : 0
Inconsistency in error sectors : 0
Track 06
Filename : /Volumes/backup/XLD/06 Masaoka-Chen-Grusel-Nagai - Ligature (no. 2).flac
Pre-gap length : 00:02:50
Track gain : -1.72 dB
Peak : 0.984009
CRC32 hash (test run) : F3C42CB3
CRC32 hash : F3C42CB3
CRC32 hash (skip zero) : EF555955
AccurateRip signature : D016B01D
->Track not present in AccurateRip database.
Statistics
Read error : 0
Skipped (treated as error) : 0
Edge jitter error (maybe fixed) : 0
Atom jitter error (maybe fixed) : 0
Drift error (maybe fixed) : 0
Dropped bytes error (maybe fixed) : 0
Duplicated bytes error (maybe fixed) : 0
Inconsistency in error sectors : 0
Track 07
Filename : /Volumes/backup/XLD/07 Masaoka-Chen-Grusel-Nagai - The Wretched.flac
Pre-gap length : 00:02:00
Track gain : 0.35 dB
Peak : 0.696533
CRC32 hash (test run) : 478A07D7
CRC32 hash : 478A07D7
CRC32 hash (skip zero) : 75F4BE66
AccurateRip signature : 35CD9F84
->Track not present in AccurateRip database.
Statistics
Read error : 0
Skipped (treated as error) : 0
Edge jitter error (maybe fixed) : 0
Atom jitter error (maybe fixed) : 0
Drift error (maybe fixed) : 0
Dropped bytes error (maybe fixed) : 0
Duplicated bytes error (maybe fixed) : 0
Inconsistency in error sectors : 0
Track 08
Filename : /Volumes/backup/XLD/08 Masaoka-Chen-Grusel-Nagai - Rain Holed Roof.flac
Pre-gap length : 00:02:00
Track gain : 2.51 dB
Peak : 0.984192
CRC32 hash (test run) : DFFF5F1B
CRC32 hash : DFFF5F1B
CRC32 hash (skip zero) : A0A8A356
AccurateRip signature : 368D3E8B
->Track not present in AccurateRip database.
Statistics
Read error : 0
Skipped (treated as error) : 0
Edge jitter error (maybe fixed) : 0
Atom jitter error (maybe fixed) : 0
Drift error (maybe fixed) : 0
Dropped bytes error (maybe fixed) : 0
Duplicated bytes error (maybe fixed) : 0
Inconsistency in error sectors : 0
No errors occurred
End of status report
 
Содержание индексной карты (.CUE)
TITLE "Masaoka/Chen/GrГјsel/Nagai"
PERFORMER "Masaoka-Chen-Grusel-Nagai"
REM GENRE "Unclassifiable"
REM DATE 2010
FILE "CDImage.wav" WAVE
TRACK 01 AUDIO
TITLE "Dialing"
SONGWRITER "Masaoka-Chen-Grusel-Nagai"
INDEX 01 00:00:00
TRACK 02 AUDIO
TITLE "Fuse"
SONGWRITER "Masaoka-Chen-Grusel-Nagai"
INDEX 01 11:30:62
TRACK 03 AUDIO
TITLE "Ligatures"
SONGWRITER "Masaoka-Chen-Grusel-Nagai"
INDEX 01 21:52:74
TRACK 04 AUDIO
TITLE "Absence of Territory"
SONGWRITER "Masaoka-Chen-Grusel-Nagai"
INDEX 00 37:17:70
INDEX 01 37:20:70
TRACK 05 AUDIO
TITLE "Traces of Dust"
SONGWRITER "Masaoka-Chen-Grusel-Nagai"
INDEX 00 52:24:46
INDEX 01 52:26:46
TRACK 06 AUDIO
TITLE "Ligature (no. 2)"
SONGWRITER "Masaoka-Chen-Grusel-Nagai"
INDEX 00 56:45:28
INDEX 01 56:48:03
TRACK 07 AUDIO
TITLE "The Wretched"
SONGWRITER "Masaoka-Chen-Grusel-Nagai"
INDEX 00 59:56:72
INDEX 01 59:58:72
TRACK 08 AUDIO
TITLE "Rain Holed Roof"
SONGWRITER "Masaoka-Chen-Grusel-Nagai"
INDEX 00 64:23:69
INDEX 01 64:25:69
 
Лог проверки качества
AUDIOCHECKER v2.0 beta (build 457) - by Dester - opdester@freemail.hu
~~~~~~~~~~~~~~~~~~~~~~~~~~~~~~~~~~
-=== НЕ РЕДАКТИРУЙТЕ ЭТОТ ФАЙЛ! ===-
Путь: ...\2009-Masaoka-Chen-Grusel-Nagai [2010, Resipiscent RSPT036]
1 -=- 01 Masaoka-Chen-Grusel-Nagai - Dialing.flac -=- CDDA (100%)
2 -=- 02 Masaoka-Chen-Grusel-Nagai - Fuse.flac -=- CDDA (100%)
3 -=- 03 Masaoka-Chen-Grusel-Nagai - Ligatures.flac -=- CDDA (100%)
4 -=- 04 Masaoka-Chen-Grusel-Nagai - Absence of Territory.flac -=- CDDA (100%)
5 -=- 05 Masaoka-Chen-Grusel-Nagai - Traces of Dust.flac -=- CDDA (100%)
6 -=- 06 Masaoka-Chen-Grusel-Nagai - Ligature (no. 2).flac -=- CDDA (100%)
7 -=- 07 Masaoka-Chen-Grusel-Nagai - The Wretched.flac -=- CDDA (100%)
8 -=- 08 Masaoka-Chen-Grusel-Nagai - Rain Holed Roof.flac -=- CDDA (99%)
Сводка 99,88% CDDA
243816596
Доп. информация:
Recorded Sept 11, 2009 at 2640 St. Paul Street, Baltimore, Maryland on a pulpit locked, rain drenched morning during the 11th High Zero Festival. This is a raw, minimally edited document of the first meeting of this quartette.
 
Состав
Audrey Chen
Hans Grusel
Kenta Nagai
Miya Masaoka
Any questions -> support@pro-jazz.com. По всем вопросам пишите -> support@pro-jazz.com
19:31
216
Нет комментариев. Ваш будет первым!