Вы используете незарегистрированную версию компонента "Вкладки"!

Поиск

(Avant-Garde, Free Improvisation, FMR) [CD] Riverloam Trio (Mikolaj Trzaska, Olie Brice, Mark Sanders) - Inem Gortn - 2014, FLAC (tracks+.cue), lossless

(Avant-Garde, Free Improvisation, FMR) [CD] Riverloam Trio (Mikolaj Trzaska, Olie Brice, Mark Sanders) - Inem Gortn - 2014, FLAC (tracks+.cue), lossless
Треклист:
Riverloam Trio / Inem Gortn
Жанр: Avant-Garde, Free Improvisation, FMR
Носитель: CD
Страна-производитель диска (релиза): U.K.
Год издания: 2014
Издатель (лейбл): FMR Records
Номер по каталогу: FMRCD374-0214
Аудиокодек: FLAC (*.flac)
Тип рипа: tracks+.cue
Битрейт аудио: lossless
Продолжительность: 53:37
Источник (релизер): я
Наличие сканов в содержимом раздачи: да
Треклист:
1. Grasping Ivy (8:24)
2. Beware of the Porter – part 1 (1:56)
3. Beware of the Porter – part 2 (11:00)
4. Danzig Blues (4:20)
5. Grub Party (9:07)
6. Elephant Trees (5:52)
7. Inem Gortn (12:58)
All compositions by Riverloam Trio.
Recorded 20 & 21 August 2012 at The Little House Music.
Mikołaj Trzaska – Alto Saxophone, Clarinet & Bass Clarinet
Olie Brice – Double Bass
Mark Sanders – Drums
 
Лог создания рипа
Exact Audio Copy V1.0 beta 3 from 29. August 2011
EAC extraction logfile from 7. November 2014, 20:29
Riverloam Trio / Inem Gortn
Used drive : SlimtypeeNAU508 5 Adapter: 1 ID: 0
Read mode : Secure
Utilize accurate stream : Yes
Defeat audio cache : Yes
Make use of C2 pointers : No
Read offset correction : 6
Overread into Lead-In and Lead-Out : No
Fill up missing offset samples with silence : Yes
Delete leading and trailing silent blocks : No
Null samples used in CRC calculations : Yes
Used interface : Native Win32 interface for Win NT & 2000
Gap handling : Appended to previous track
Used output format : User Defined Encoder
Selected bitrate : 768 kBit/s
Quality : High
Add ID3 tag : No
Command line compressor : C:\Program Files (x86)\Exact Audio Copy\Flac\flac.exe
Additional command line options : -8 -V -T "ARTIST=%artist%" -T "TITLE=%title%" -T "ALBUM=%albumtitle%" -T "DATE=%year%" -T "TRACKNUMBER=%tracknr%" -T "TOTALTRACKS=%numtracks%" -T "GENRE=%genre%" -T "ALBUMARTIST=%albumartist%" -T "ALBUM ARTIST=%albumartist%" -T "COMMENT=EAC Secure Mode, Test & Copy, AccurateRip, FLAC -8" %source%
TOC of the extracted CD
Track | Start | Length | Start sector | End sector
---------------------------------------------------------
1 | 0:00.00 | 8:23.38 | 0 | 37762
2 | 8:23.38 | 1:56.27 | 37763 | 46489
3 | 10:19.65 | 10:59.39 | 46490 | 95953
4 | 21:19.29 | 4:20.19 | 95954 | 115472
5 | 25:39.48 | 9:07.06 | 115473 | 156503
6 | 34:46.54 | 5:51.44 | 156504 | 182872
7 | 40:38.23 | 12:58.33 | 182873 | 241255
Track 1
Filename C:\EAC rips\01 - Grasping Ivy.wav
Pre-gap length 0:00:02.00
Peak level 100.0 %
Extraction speed 2.5 X
Track quality 100.0 %
Test CRC 9E4C9FC4
Copy CRC 9E4C9FC4
Track not present in AccurateRip database
Copy OK
Track 2
Filename C:\EAC rips\02 - Beware of the Porter - part 1.wav
Peak level 97.6 %
Extraction speed 2.3 X
Track quality 100.0 %
Test CRC 48A15B73
Copy CRC 48A15B73
Track not present in AccurateRip database
Copy OK
Track 3
Filename C:\EAC rips\03 - Beware of the Porter - part 2.wav
Peak level 96.9 %
Extraction speed 3.2 X
Track quality 100.0 %
Test CRC F93AE47D
Copy CRC F93AE47D
Track not present in AccurateRip database
Copy OK
Track 4
Filename C:\EAC rips\04 - Danzig Blues.wav
Peak level 77.9 %
Extraction speed 2.8 X
Track quality 99.9 %
Test CRC 28299212
Copy CRC 28299212
Track not present in AccurateRip database
Copy OK
Track 5
Filename C:\EAC rips\05 - Grub Party.wav
Peak level 97.5 %
Extraction speed 3.8 X
Track quality 100.0 %
Test CRC 2875F607
Copy CRC 2875F607
Track not present in AccurateRip database
Copy OK
Track 6
Filename C:\EAC rips\06 - Elephant Trees.wav
Peak level 96.9 %
Extraction speed 3.4 X
Track quality 99.9 %
Test CRC 7AE2485D
Copy CRC 7AE2485D
Track not present in AccurateRip database
Copy OK
Track 7
Filename C:\EAC rips\07 - Inem Gortn.wav
Peak level 96.9 %
Extraction speed 4.4 X
Track quality 100.0 %
Test CRC 7CE9C601
Copy CRC 7CE9C601
Track not present in AccurateRip database
Copy OK
None of the tracks are present in the AccurateRip database
No errors occurred
End of status report
---- CUETools DB Plugin V2.1.4
[CTDB TOCID: kfYUd2RigQeOtvci0XnzXFvyAz0-] disk not present in database
Submit result: kfYUd2RigQeOtvci0XnzXFvyAz0- has been uploaded
==== Log checksum 8A9EDD068742E9D546235AB7C3B0B491E8D3463B41EC3FB342B009126D03748E ====
 
Содержание индексной карты (.CUE)
REM GENRE FMRCD374-0214
REM DATE 2014
REM DISCID 480C9007
REM COMMENT "ExactAudioCopy v1.0b3"
PERFORMER "Riverloam Trio"
TITLE "Inem Gortn"
FILE "01 - Grasping Ivy.wav" WAVE
TRACK 01 AUDIO
TITLE "Grasping Ivy"
PERFORMER "Riverloam Trio"
INDEX 01 00:00:00
FILE "02 - Beware of the Porter - part 1.wav" WAVE
TRACK 02 AUDIO
TITLE "Beware of the Porter - part 1"
PERFORMER "Riverloam Trio"
INDEX 01 00:00:00
FILE "03 - Beware of the Porter - part 2.wav" WAVE
TRACK 03 AUDIO
TITLE "Beware of the Porter - part 2"
PERFORMER "Riverloam Trio"
INDEX 01 00:00:00
FILE "04 - Danzig Blues.wav" WAVE
TRACK 04 AUDIO
TITLE "Danzig Blues"
PERFORMER "Riverloam Trio"
INDEX 01 00:00:00
FILE "05 - Grub Party.wav" WAVE
TRACK 05 AUDIO
TITLE "Grub Party "
PERFORMER "Riverloam Trio"
INDEX 01 00:00:00
FILE "06 - Elephant Trees.wav" WAVE
TRACK 06 AUDIO
TITLE "Elephant Trees"
PERFORMER "Riverloam Trio"
INDEX 01 00:00:00
FILE "07 - Inem Gortn.wav" WAVE
TRACK 07 AUDIO
TITLE "Inem Gortn"
PERFORMER "Riverloam Trio"
INDEX 01 00:00:00
По всем вопросам пишите личное сообщение пользователю M0p94ok.
07:45
171
Нет комментариев. Ваш будет первым!