Вы используете незарегистрированную версию компонента "Вкладки"!

Поиск

(Avant-Garde / Free Improvisation / Experimental / Electronic) Thomas Rohrer / Rob Mazurek / Mauricio Takara / Miguel Barella - Projections of a Seven Foot Ghost - 2008, FLAC (image+.cue), lossless

(Avant-Garde / Free Improvisation / Experimental / Electronic) Thomas Rohrer / Rob Mazurek / Mauricio Takara / Miguel Barella - Projections of a Seven Foot Ghost - 2008, FLAC (image+.cue), lossless
Треклист:
Thomas Rohrer / Rob Mazurek / Mauricio Takara / Miguel Barella - Projections of a Seven Foot Ghost

Жанр: Avant-Garde / Free Improvisation / Experimental / Electronic
Год выпуска диска: 2008
Производитель диска: Peligro Records GRR037; Brasil
Аудио кодек: FLAC
Тип рипа: image+.cue
Битрейт аудио: lossless
Продолжительность: 1:35:19
Thomas Rohrer: saxophone, fiddle, electronics
Rob Mazurek: trumpet, electronics
Mauricio Takara: percussion, electronics
Miguel Barella: guitar, gralla, electronics
Disc 1
1. Midnight in the Land of Twisters
Disc 2
1. Reverse Lightning, and the Drum of Perpetual Springtime
2. Nightmares Are Over-Rated

 
Free Jazz Review
This quartet finds Mazurek again in a fully experimental electronic environment, finding back Maurizio Takara, percussionist and electronics expert, and fellow member of São Paulo Underground. They are joined by Thomas Rohrer on rabeca and sax, and by Miguel Barella on guitar and electronics. The record consists of two long tracks (over 45 minutes each) and a short one, in which the quartet creates a long exploration of sound, with subtle shifts away from silence, through noise, through electronics, with once in a while the trumpet soaring above it, at other moments drums pound mercilessly, or the guitar screams, but that is rare, most of the time the music is faint, reminiscent of Keith Rowe (although not going that far into meaninglessness). It is a worthwhile adventure. ~ Free Jazz Blog
 
EAC Report (Disc 1)
Exact Audio Copy V0.99 prebeta 5 from 4. May 2009
EAC extraction logfile from 3. April 2010, 15:59
Rohrer / Mazurek / Takara / Barella / Projections of a Seven Foot Ghost (Disc 1)
Used drive : TSSTcorpCD/DVDW SH-S182M Adapter: 1 ID: 0
Read mode : Secure
Utilize accurate stream : Yes
Defeat audio cache : Yes
Make use of C2 pointers : No
Read offset correction : 6
Overread into Lead-In and Lead-Out : No
Fill up missing offset samples with silence : Yes
Delete leading and trailing silent blocks : No
Null samples used in CRC calculations : Yes
Used interface : Installed external ASPI interface
Used output format : User Defined Encoder
Selected bitrate : 1024 kBit/s
Quality : High
Add ID3 tag : No
Command line compressor : C:\Program Files\Exact Audio Copy\Flac\flac.exe
Additional command line options : -6 -V -T "ARTIST=%a" -T "TITLE=%t" -T "ALBUM=%g" -T "DATE=%y" -T "TRACKNUMBER=%n" -T "GENRE=%m" -T "COMMENT=EAC FLAC -6" %s
TOC of the extracted CD
Track | Start | Length | Start sector | End sector
---------------------------------------------------------
1 | 0:00.00 | 44:08.57 | 0 | 198656
Range status and errors
Selected range
Filename C:\Users\Igor\Music\eac\Rohrer Mazurek Takara Barella - Projections of a Seven Foot Ghost (Disc 1).wav
Peak level 100.0 %
Range quality 100.0 %
Test CRC 4023F16B
Copy CRC 4023F16B
Copy OK
No errors occurred
AccurateRip summary
Track 1 not present in database
None of the tracks are present in the AccurateRip database
End of status report
 
EAC Report (Disc 2)
Exact Audio Copy V0.99 prebeta 5 from 4. May 2009
EAC extraction logfile from 3. April 2010, 11:20
Rohrer / Mazurek / Takara / Barella / Projections of a Seven Foot Ghost (Disc 2)
Used drive : TSSTcorpCD/DVDW SH-S182M Adapter: 1 ID: 0
Read mode : Secure
Utilize accurate stream : Yes
Defeat audio cache : Yes
Make use of C2 pointers : No
Read offset correction : 6
Overread into Lead-In and Lead-Out : No
Fill up missing offset samples with silence : Yes
Delete leading and trailing silent blocks : No
Null samples used in CRC calculations : Yes
Used interface : Installed external ASPI interface
Used output format : User Defined Encoder
Selected bitrate : 1024 kBit/s
Quality : High
Add ID3 tag : No
Command line compressor : C:\Program Files\Exact Audio Copy\Flac\flac.exe
Additional command line options : -6 -V -T "ARTIST=%a" -T "TITLE=%t" -T "ALBUM=%g" -T "DATE=%y" -T "TRACKNUMBER=%n" -T "GENRE=%m" -T "COMMENT=EAC FLAC -6" %s
TOC of the extracted CD
Track | Start | Length | Start sector | End sector
---------------------------------------------------------
1 | 0:00.00 | 46:45.25 | 0 | 210399
2 | 46:45.25 | 4:26.37 | 210400 | 230386
Range status and errors
Selected range
Filename C:\Users\Igor\Music\eac\Rohrer Mazurek Takara Barella - Projections of a Seven Foot Ghost (Disc 2).wav
Peak level 100.0 %
Range quality 100.0 %
Test CRC 78A70DCC
Copy CRC 78A70DCC
Copy OK
No errors occurred
AccurateRip summary
Track 1 not present in database
Track 2 not present in database
None of the tracks are present in the AccurateRip database
End of status report
------------------------------------------------------------
Exact Audio Copy V0.99 prebeta 5 from 4. May 2009
EAC extraction logfile from 3. April 2010, 11:31
Rohrer / Mazurek / Takara / Barella / Projections of a Seven Foot Ghost (Disc 1)
Used drive : TSSTcorpCD/DVDW SH-S182M Adapter: 1 ID: 0
Read mode : Secure
Utilize accurate stream : Yes
Defeat audio cache : No
Make use of C2 pointers : Yes
Read offset correction : 6
Overread into Lead-In and Lead-Out : No
Fill up missing offset samples with silence : Yes
Delete leading and trailing silent blocks : No
Null samples used in CRC calculations : Yes
Used interface : Installed external ASPI interface
Used output format : User Defined Encoder
Selected bitrate : 1024 kBit/s
Quality : High
Add ID3 tag : No
Command line compressor : C:\Program Files\Exact Audio Copy\Flac\flac.exe
Additional command line options : -6 -V -T "ARTIST=%a" -T "TITLE=%t" -T "ALBUM=%g" -T "DATE=%y" -T "TRACKNUMBER=%n" -T "GENRE=%m" -T "COMMENT=EAC FLAC -6" %s
TOC of the extracted CD
Track | Start | Length | Start sector | End sector
---------------------------------------------------------
1 | 0:00.00 | 44:08.57 | 0 | 198656
Range status and errors
Selected range
Filename C:\Users\Igor\Music\eac\Rohrer Mazurek Takara Barella - Projections of a Seven Foot Ghost (Disc 2).wav
Copy aborted
End of status report

рип собственный
Any questions -> support@pro-jazz.com. По всем вопросам пишите -> support@pro-jazz.com
21:38
113
Нет комментариев. Ваш будет первым!