Вы используете незарегистрированную версию компонента "Вкладки"!

Поиск

(Avant-Garde, Free Improvisation, Creative Sources) [CD] PAURA (Alipio C. Neto, Dennis Gonzalez, Ernesto Rodrigues, Guilherme Rodrigues, Mark Sanders) - The Construction of Fear - 2008, FLAC (tracks+.cue), lossless

(Avant-Garde, Free Improvisation, Creative Sources) [CD] PAURA (Alipio C. Neto, Dennis Gonzalez, Ernesto Rodrigues, Guilherme Rodrigues, Mark Sanders) - The Construction of Fear - 2008, FLAC (tracks+.cue), lossless
Треклист:
PAURA / The Construction of Fear
Жанр: Avant-Garde, Free Improvisation, Creative Sources
Носитель: CD
Страна-производитель диска (релиза): Portugal
Год издания: 2008
Издатель (лейбл): Creative Sources Recordings
Номер по каталогу: cs 139 cd
Аудиокодек: FLAC (*.flac)
Тип рипа: tracks+.cue
Битрейт аудио: lossless
Продолжительность: 1:04:38
Источник (релизер): я
Наличие сканов в содержимом раздачи: да
Треклист:
1. Fear 1: Pulsion 17:28
2. Fear 2: Void and Voices 37:58
3. Fear 3: PAURA – Lyricon 9:12
Recorded at Tcha3 in Lisbon on June 15, 2007.
Alípio C. Neto – Soprano & Tenor Saxophones
Dennis González – Trumpet, Voice
Ernesto Rodrigues – Viola
Guilherme Rodrigues – Cello, Radio
Mark Sanders – Drums
 
Лог создания рипа
Exact Audio Copy V1.0 beta 6 from 9. April 2015
EAC extraction logfile from 12. April 2015, 14:15
PAURA / The Construction of Fear
Used drive : SlimtypeeNAU508 5 Adapter: 1 ID: 1
Read mode : Secure
Utilize accurate stream : Yes
Defeat audio cache : Yes
Make use of C2 pointers : No
Read offset correction : 6
Overread into Lead-In and Lead-Out : No
Fill up missing offset samples with silence : Yes
Delete leading and trailing silent blocks : No
Null samples used in CRC calculations : Yes
Used interface : Native Win32 interface for Win NT & 2000
Gap handling : Appended to previous track
Used output format : User Defined Encoder
Selected bitrate : 768 kBit/s
Quality : High
Add ID3 tag : No
Command line compressor : C:\Program Files (x86)\Exact Audio Copy\Flac\flac.exe
Additional command line options : -8 -V -T "ARTIST=%artist%" -T "TITLE=%title%" -T "ALBUM=%albumtitle%" -T "DATE=%year%" -T "TRACKNUMBER=%tracknr%" -T "TOTALTRACKS=%numtracks%" -T "GENRE=%genre%" -T "ALBUMARTIST=%albumartist%" -T "ALBUM ARTIST=%albumartist%" -T "COMMENT=EAC Secure Mode, Test & Copy, AccurateRip, FLAC -8" %source%
TOC of the extracted CD
Track | Start | Length | Start sector | End sector
---------------------------------------------------------
1 | 0:00.00 | 17:28.04 | 0 | 78603
2 | 17:28.04 | 37:58.00 | 78604 | 249453
3 | 55:26.04 | 9:12.31 | 249454 | 290884
Track 1
Filename C:\EAC rips\01 - Fear 1 - Pulsion.wav
Pre-gap length 0:00:02.00
Peak level 100.0 %
Extraction speed 1.5 X
Track quality 100.0 %
Test CRC 79A57E2C
Copy CRC 79A57E2C
Accurately ripped (confidence 1) [C2133759] (AR v2)
Copy OK
Track 2
Filename C:\EAC rips\02 - Fear 2 - Void and Voices.wav
Pre-gap length 0:00:05.00
Peak level 100.0 %
Extraction speed 2.1 X
Track quality 100.0 %
Test CRC 76604273
Copy CRC 76604273
Accurately ripped (confidence 1) [C6CAC7BE] (AR v2)
Copy OK
Track 3
Filename C:\EAC rips\03 - Fear 3 - PAURA - Lyricon.wav
Pre-gap length 0:00:06.00
Peak level 100.0 %
Extraction speed 2.3 X
Track quality 99.9 %
Test CRC BFA3D02C
Copy CRC BFA3D02C
Accurately ripped (confidence 1) [F97B8DE5] (AR v2)
Copy OK
All tracks accurately ripped
No errors occurred
End of status report
---- CUETools DB Plugin V2.1.6
[CTDB TOCID: DH3EzDrwCgVZGPIfuh9OuBm7Hi4-] found
Submit result: already submitted
Track | CTDB Status
1 | (1/1) Accurately ripped
2 | (1/1) Accurately ripped
3 | (1/1) Accurately ripped
==== Log checksum 12BCA253921CE9AD96C40C68A9BE7C125FACE6604C80E91EB635A4D6E93AC583 ====
 
Содержание индексной карты (.CUE)
REM GENRE "Creative Sources Recordings - cs 139 cd"
REM DATE 2008
REM DISCID 180F2603
REM COMMENT "ExactAudioCopy v1.0b6"
PERFORMER "PAURA"
TITLE "The Construction of Fear"
FILE "01 - Fear 1 - Pulsion.wav" WAVE
TRACK 01 AUDIO
TITLE "Fear 1: Pulsion"
PERFORMER "PAURA"
INDEX 01 00:00:00
TRACK 02 AUDIO
TITLE "Fear 2: Void and Voices"
PERFORMER "PAURA"
INDEX 00 17:23:04
FILE "02 - Fear 2 - Void and Voices.wav" WAVE
INDEX 01 00:00:00
TRACK 03 AUDIO
TITLE "Fear 3: PAURA - Lyricon"
PERFORMER "PAURA"
INDEX 00 37:52:00
FILE "03 - Fear 3 - PAURA - Lyricon.wav" WAVE
INDEX 01 00:00:00
По всем вопросам пишите личное сообщение пользователю M0p94ok.
10:59
251
Нет комментариев. Ваш будет первым!