Вы используете незарегистрированную версию компонента "Вкладки"!

Поиск

(Avant-Garde, Free Improvisation) [CD] Henrik Munkeby Nørstebø (Norstebo), Raymond Strid, Nina de Heney - Oslo Wien (2CDs) - 2015, FLAC (tracks+.cue), lossless

(Avant-Garde, Free Improvisation) [CD] Henrik Munkeby Nørstebø (Norstebo), Raymond Strid, Nina de Heney - Oslo Wien (2CDs) - 2015, FLAC (tracks+.cue), lossless
Треклист:
Henrik Munkeby Nørstebø, Raymond Strid, Nina de Heney / Oslo Wien (2CDs)
Жанр: Avant-Garde, Free Improvisation
Носитель: CD
Страна-производитель диска (релиза): Norway
Год издания: 2015
Издатель (лейбл): Va Fongool
Номер по каталогу: VAFCD014
Аудиокодек: FLAC (*.flac)
Тип рипа: tracks+.cue
Битрейт аудио: lossless
Продолжительность: 50:15 + 49:56
Источник (релизер): я
Наличие сканов в содержимом раздачи: да
Треклист:
Disc 1: Oslo
1. Oslo 1 (12:48)
2. Oslo 2 (9:02)
3. Oslo 3 (5:29)
4. Oslo 4 (7:07)
5. Oslo 5 (15:50)
Recorded March 30, 2014 at Bidrobon.
Disc 2: Wien

1. Wien 1 (32:32)
2. Wien 2 (17:24)
Recorded March 29, 2014 at Freistunde.
All music by Nørstebø / Strid / de Heney.
Henrik Munkeby Nørstebø – Trombone
Raymond Strid – Drums
Nina de Heney – Double Bass
 
Лог создания рипа
 
Disc 1
Exact Audio Copy V1.0 beta 6 from 9. April 2015
EAC extraction logfile from 3. May 2015, 10:31
Henrik Munkeby Nørstebø, Raymond Strid, Nina de Heney / Oslo Wien (Disc 1: Oslo)
Used drive : SlimtypeeNAU508 5 Adapter: 1 ID: 1
Read mode : Secure
Utilize accurate stream : Yes
Defeat audio cache : Yes
Make use of C2 pointers : No
Read offset correction : 6
Overread into Lead-In and Lead-Out : No
Fill up missing offset samples with silence : Yes
Delete leading and trailing silent blocks : No
Null samples used in CRC calculations : Yes
Used interface : Native Win32 interface for Win NT & 2000
Gap handling : Appended to previous track
Used output format : User Defined Encoder
Selected bitrate : 768 kBit/s
Quality : High
Add ID3 tag : No
Command line compressor : C:\Program Files (x86)\Exact Audio Copy\Flac\flac.exe
Additional command line options : -8 -V -T "ARTIST=%artist%" -T "TITLE=%title%" -T "ALBUM=%albumtitle%" -T "DATE=%year%" -T "TRACKNUMBER=%tracknr%" -T "TOTALTRACKS=%numtracks%" -T "GENRE=%genre%" -T "ALBUMARTIST=%albumartist%" -T "ALBUM ARTIST=%albumartist%" -T "COMMENT=EAC Secure Mode, Test & Copy, AccurateRip, FLAC -8" %source%
TOC of the extracted CD
Track | Start | Length | Start sector | End sector
---------------------------------------------------------
1 | 0:00.00 | 12:48.00 | 0 | 57599
2 | 12:48.00 | 9:02.19 | 57600 | 98268
3 | 21:50.19 | 5:29.00 | 98269 | 122943
4 | 27:19.19 | 7:06.38 | 122944 | 154931
5 | 34:25.57 | 15:49.38 | 154932 | 226144
Track 1
Filename C:\EAC rips\01 - Oslo 1.wav
Pre-gap length 0:00:02.00
Peak level 98.6 %
Extraction speed 2.6 X
Track quality 100.0 %
Test CRC BDEA3F02
Copy CRC BDEA3F02
Track not present in AccurateRip database
Copy OK
Track 2
Filename C:\EAC rips\02 - Oslo 2.wav
Peak level 98.2 %
Extraction speed 3.1 X
Track quality 100.0 %
Test CRC 1F1A21D2
Copy CRC 1F1A21D2
Track not present in AccurateRip database
Copy OK
Track 3
Filename C:\EAC rips\03 - Oslo 3.wav
Peak level 94.8 %
Extraction speed 2.7 X
Track quality 99.9 %
Test CRC 19944AB6
Copy CRC 19944AB6
Track not present in AccurateRip database
Copy OK
Track 4
Filename C:\EAC rips\04 - Oslo 4.wav
Peak level 96.4 %
Extraction speed 3.6 X
Track quality 100.0 %
Test CRC 8A0C5F2A
Copy CRC 8A0C5F2A
Track not present in AccurateRip database
Copy OK
Track 5
Filename C:\EAC rips\05 - Oslo 5.wav
Peak level 95.4 %
Extraction speed 3.8 X
Track quality 99.9 %
Test CRC 38328657
Copy CRC 38328657
Track not present in AccurateRip database
Copy OK
None of the tracks are present in the AccurateRip database
No errors occurred
End of status report
---- CUETools DB Plugin V2.1.6
[CTDB TOCID: mjE7Yxx8jIgH.MLBvSiLlQ6jdlk-] disk not present in database
Submit result: mjE7Yxx8jIgH.MLBvSiLlQ6jdlk- has been uploaded
==== Log checksum 29D4A3FAE2E9E6EC50B634AA37735B8F2AA1AC04D7D0F18FE52376FB8239170B ====
 
Disc 2
Exact Audio Copy V1.0 beta 6 from 9. April 2015
EAC extraction logfile from 3. May 2015, 11:24
Henrik Munkeby Nørstebø, Raymond Strid, Nina de Heney / Oslo Wien (Disc 2: Wien)
Used drive : SlimtypeeNAU508 5 Adapter: 1 ID: 1
Read mode : Secure
Utilize accurate stream : Yes
Defeat audio cache : Yes
Make use of C2 pointers : No
Read offset correction : 6
Overread into Lead-In and Lead-Out : No
Fill up missing offset samples with silence : Yes
Delete leading and trailing silent blocks : No
Null samples used in CRC calculations : Yes
Used interface : Native Win32 interface for Win NT & 2000
Gap handling : Appended to previous track
Used output format : User Defined Encoder
Selected bitrate : 768 kBit/s
Quality : High
Add ID3 tag : No
Command line compressor : C:\Program Files (x86)\Exact Audio Copy\Flac\flac.exe
Additional command line options : -8 -V -T "ARTIST=%artist%" -T "TITLE=%title%" -T "ALBUM=%albumtitle%" -T "DATE=%year%" -T "TRACKNUMBER=%tracknr%" -T "TOTALTRACKS=%numtracks%" -T "GENRE=%genre%" -T "ALBUMARTIST=%albumartist%" -T "ALBUM ARTIST=%albumartist%" -T "COMMENT=EAC Secure Mode, Test & Copy, AccurateRip, FLAC -8" %source%
TOC of the extracted CD
Track | Start | Length | Start sector | End sector
---------------------------------------------------------
1 | 0:00.00 | 32:32.00 | 0 | 146399
2 | 32:32.00 | 17:24.00 | 146400 | 224699
Track 1
Filename C:\EAC rips\01 - Wien 1.wav
Pre-gap length 0:00:02.00
Peak level 95.4 %
Extraction speed 1.4 X
Track quality 100.0 %
Test CRC 502A57A4
Copy CRC 502A57A4
Track not present in AccurateRip database
Copy OK
Track 2
Filename C:\EAC rips\02 - Wien 2.wav
Pre-gap length 0:00:02.00
Peak level 95.6 %
Extraction speed 2.1 X
Track quality 100.0 %
Test CRC E15EE4DE
Copy CRC E15EE4DE
Track not present in AccurateRip database
Copy OK
None of the tracks are present in the AccurateRip database
No errors occurred
End of status report
---- CUETools DB Plugin V2.1.6
[CTDB TOCID: BfEq2B4l7_z62.jvoamhcax8WuU-] disk not present in database
Submit result: BfEq2B4l7_z62.jvoamhcax8WuU- has been uploaded
==== Log checksum F7436C7FCCF4E4F9E6826736875ABEFD367DD3E69CF282909162C0F3B45634B5 ====
 
Содержание индексной карты (.CUE)
 
Disc 1
REM GENRE "Va Fongool VAFCD014"
REM DATE 2015
REM DISCID 320BC705
REM COMMENT "ExactAudioCopy v1.0b6"
CATALOG 7041880992507
PERFORMER "Henrik Munkeby Nørstebø, Raymond Strid, Nina de Heney"
TITLE "Oslo Wien (Disc 1: Oslo)"
FILE "01 - Oslo 1.wav" WAVE
TRACK 01 AUDIO
TITLE "Oslo 1"
PERFORMER "Henrik Munkeby Nørstebø, Raymond Strid, Nina de Heney"
ISRC NO33M1407001
INDEX 01 00:00:00
FILE "02 - Oslo 2.wav" WAVE
TRACK 02 AUDIO
TITLE "Oslo 2"
PERFORMER "Henrik Munkeby Nørstebø, Raymond Strid, Nina de Heney"
ISRC NO33M1407002
INDEX 01 00:00:00
FILE "03 - Oslo 3.wav" WAVE
TRACK 03 AUDIO
TITLE "Oslo 3"
PERFORMER "Henrik Munkeby Nørstebø, Raymond Strid, Nina de Heney"
ISRC NO33M1407003
INDEX 01 00:00:00
FILE "04 - Oslo 4.wav" WAVE
TRACK 04 AUDIO
TITLE "Oslo 4"
PERFORMER "Henrik Munkeby Nørstebø, Raymond Strid, Nina de Heney"
ISRC NO33M1407004
INDEX 01 00:00:00
FILE "05 - Oslo 5.wav" WAVE
TRACK 05 AUDIO
TITLE "Oslo 5"
PERFORMER "Henrik Munkeby Nørstebø, Raymond Strid, Nina de Heney"
ISRC NO33M1407005
INDEX 01 00:00:00
 
Disc 2
REM GENRE "Va Fongool VAFCD014"
REM DATE 2015
REM DISCID 150BB402
REM COMMENT "ExactAudioCopy v1.0b6"
PERFORMER "Henrik Munkeby Nørstebø, Raymond Strid, Nina de Heney"
TITLE "Oslo Wien (Disc 2: Wien)"
FILE "01 - Wien 1.wav" WAVE
TRACK 01 AUDIO
TITLE "Wien 1"
PERFORMER "Henrik Munkeby Nørstebø, Raymond Strid, Nina de Heney"
ISRC NO33M1407006
INDEX 01 00:00:00
TRACK 02 AUDIO
TITLE "Wien 2"
PERFORMER "Henrik Munkeby Nørstebø, Raymond Strid, Nina de Heney"
ISRC NO33M1407006
INDEX 00 32:30:00
FILE "02 - Wien 2.wav" WAVE
INDEX 01 00:00:00
По всем вопросам пишите личное сообщение пользователю M0p94ok.
14:56
220
Нет комментариев. Ваш будет первым!