Поиск

(Avant-Garde / Free Improvisation) Art Ensemble of Chicago - Live in Milano - 2001, FLAC (image + .cue), lossless

Треклист:
Art Ensemble of Chicago - Live in Milano

Страна: USA
Жанр: Jazz
Год выпуска: 2001
Формат: FLAC (image + .cue)
Битрейт аудио: lossless
Продолжительность: 36:47
Tutankhamun
Illinstrun
A Jackson in Your House

 
EAC Report
Exact Audio Copy V0.99 prebeta 4 from 23. January 2008
EAC extraction logfile from 17. April 2008, 0:14
Art Ensemble of Chicago / Live in Milano
Used drive : TSSTcorpCD/DVDW SH-S182M Adapter: 2 ID: 0
Read mode : Secure
Utilize accurate stream : Yes
Defeat audio cache : Yes
Make use of C2 pointers : No
Read offset correction : 6
Overread into Lead-In and Lead-Out : No
Fill up missing offset samples with silence : Yes
Delete leading and trailing silent blocks : No
Null samples used in CRC calculations : No
Used interface : Installed external ASPI interface
Used output format : User Defined Encoder
Selected bitrate : 1024 kBit/s
Quality : High
Add ID3 tag : No
Command line compressor : C:\Program Files\Exact Audio Copy\FLAC\FLAC.EXE
Additional command line options : -6 -V -T "ARTIST=%a" -T "TITLE=%t" -T "ALBUM=%g" -T "DATE=%y" -T "TRACKNUMBER=%n" -T "GENRE=%m" -T "COMMENT=%e" %s -o %d
TOC of the extracted CD
Track | Start | Length | Start sector | End sector
---------------------------------------------------------
1 | 0:00.00 | 18:31.51 | 0 | 83375
2 | 18:31.51 | 7:50.51 | 83376 | 118676
3 | 26:22.27 | 10:24.28 | 118677 | 165504
Range status and errors
Selected range
Filename F:\z\Art Ensemble of Chicago - Live in Milano.wav
Peak level 99.9 %
Range quality 100.0 %
Copy CRC FFBD8A1E
Copy OK
No errors occurred
AccurateRip summary
Track 1 not present in database
Track 2 not present in database
Track 3 not present in database
None of the tracks are present in the AccurateRip database
End of status report

рип собственный
Приватный:
Нет (DHT включён)
Размер:
188.76 Мб (197,925,294 байт) » файлов: 6
Участники:
0 раздают, 0 качают (0 участников всего)
Внешние участники:
1 раздают, 0 качают (1 участников всего) [ Обновить ]
Есть вопросы - пишите личное сообщение пользователю M0p94ok.
01:05
33
Нет комментариев. Ваш будет первым!