Поиск

(Avant-Garde, Folk-Jazz, Vocal Jazz) Iva Bittová (Iva Bittova) / Vladimír Václavek (Vladimir Vaclavek) / White Inferno (Bile Inferno) (2CD) - 1997, APE (image+.cue), lossless

(Avant-Garde, Folk-Jazz, Vocal Jazz) Iva Bittová (Iva Bittova) / Vladimír Václavek (Vladimir Vaclavek) / White Inferno (Bile Inferno) (2CD) - 1997, APE (image+.cue), lossless
Треклист:
Iva Bittová / Vladimír Václavek
Inferno (Bile Inferno) (2CD)

Жанр: Avant-Garde, Folk-Jazz, Vocal Jazz
Страна-производитель диска: Czech Republic
Год издания: 1997
Издатель (лейбл): Indies Scope Records
Страна: Czech Republic
Аудиокодек: APE (*.ape)
Тип рипа: image+.cue
Битрейт аудио: lossless
Продолжительность: 77:03
Источник (релизер): рип с моего диска
Наличие сканов в содержимом раздачи: нет
Треклист:
CD1:
1. Vpomínkaz (Bittová, Reynek, Václavek) 7:38
2. Uspávanka (Bittová, Skácel, Václavek) 6:06
3. Sirka V Louzi (Bittová, Reynek, Václavek) 3:44
4. Sto Let (Bittová, Päk-dzu, Vyhídal) 4:17
5. Kdoule (Bittová, Reynek, Václavek) 6:01
6. Zelený Vínecek (Aranzmá, Bittová) 4:38
7. Moucha (Bittová, Reynek, Václavek) 9:04
CD2:
1. More (Bittová, Rencová, Václavek) 7:01
2. Starý Mlýn (Reynek, Václavek) 3:36
3. Je Tma (Bittová, Václavek) 2:13
4. Churý Churuj (Bittová, Václavek) 9:44
5. Zvon (Bittová, Václavek) 9:43
6. Huljet (Bittová, Gebirtig, Václavek) 3:18
 
Лог создания рипа
Exact Audio Copy V0.99 prebeta 4 from 23. January 2008
Отчёт EAC об извлечении, выполненном 9. декабря 2012, 2:04
Iva Bittova & Vladimir Vaclavek / Bile Inferno (Disc 1)
Дисковод: TSSTcorpCDRWDVD TSL462D Adapter: 2 ID: 0
Режим чтения : Достоверность
Использование точного потока : Да
Отключение кэша аудио : Да
Использование указателей C2 : Нет
Коррекция смещения при чтении : 6
Способность читать области Lead-in и Lead-out : Нет
Заполнение пропущенных сэмплов тишиной : Да
Удаление блоков с тишиной в начале и конце : Нет
При вычислениях CRC использовались нулевые сэмплы : Да
Интерфейс : Встроенный Win32-интерфейс для Win NT/2000
Выходной формат : Внутренние WAV-операции
Формат сэмплов : 44.100 Гц; 16 бит; стерео
TOC извлечённого CD
Трек | Старт | Длительность | Начальный сектор | Конечный сектор
---------------------------------------------------------------------
1 | 0:00.00 | 7:38.67 | 0 | 34416
2 | 7:38.67 | 6:06.40 | 34417 | 61906
3 | 13:45.32 | 3:44.40 | 61907 | 78746
4 | 17:29.72 | 4:17.55 | 78747 | 98076
5 | 21:47.52 | 6:01.58 | 98077 | 125209
6 | 27:49.35 | 4:38.57 | 125210 | 146116
7 | 32:28.17 | 9:04.58 | 146117 | 186974
Характеристики диапазона извлечения и сообщения об ошибках
Выбранный диапазон
Имя файла C:\Music\Iva Bittova & Vladimir Vaclavek - Bile Inferno (White Inferno) (2 CD)\Iva Bittova & Vladimir Vaclavek - Bile Inferno (Disc 1).wav
Пиковый уровень 98.8 %
Качество диапазона 100.0 %
CRC теста 02E788BF
CRC копии 02E788BF
Копирование... OK
Ошибок не произошло
AccurateRip: сводка
Трек 1 точное извлечение (доверие 4) [753371CF]
Трек 2 точное извлечение (доверие 4) [95329444]
Трек 3 точное извлечение (доверие 4) [97DDF201]
Трек 4 точное извлечение (доверие 4) [AAC4EDE8]
Трек 5 точное извлечение (доверие 4) [657BD8E2]
Трек 6 точное извлечение (доверие 4) [CEF903FF]
Трек 7 точное извлечение (доверие 4) [2ABC6D9C]
Все треки извлечены точно
Конец отчёта
Exact Audio Copy V0.99 prebeta 4 from 23. January 2008
Отчёт EAC об извлечении, выполненном 9. декабря 2012, 2:26
Iva Bittova & Vladimir Vaclavek / Bile Inferno (Disc 2)
Дисковод: TSSTcorpCDRWDVD TSL462D Adapter: 2 ID: 0
Режим чтения : Достоверность
Использование точного потока : Да
Отключение кэша аудио : Да
Использование указателей C2 : Нет
Коррекция смещения при чтении : 6
Способность читать области Lead-in и Lead-out : Нет
Заполнение пропущенных сэмплов тишиной : Да
Удаление блоков с тишиной в начале и конце : Нет
При вычислениях CRC использовались нулевые сэмплы : Да
Интерфейс : Встроенный Win32-интерфейс для Win NT/2000
Выходной формат : Внутренние WAV-операции
Формат сэмплов : 44.100 Гц; 16 бит; стерео
TOC извлечённого CD
Трек | Старт | Длительность | Начальный сектор | Конечный сектор
---------------------------------------------------------------------
1 | 0:00.00 | 7:01.20 | 0 | 31594
2 | 7:01.20 | 3:36.20 | 31595 | 47814
3 | 10:37.40 | 2:13.65 | 47815 | 57854
4 | 12:51.30 | 9:44.32 | 57855 | 101686
5 | 22:35.62 | 9:43.13 | 101687 | 145424
6 | 32:19.00 | 3:18.62 | 145425 | 160336
Характеристики диапазона извлечения и сообщения об ошибках
Выбранный диапазон
Имя файла C:\Music\Iva Bittova & Vladimir Vaclavek - Bile Inferno (White Inferno) (2 CD)\Iva Bittova & Vladimir Vaclavek - Bile Inferno (Disc 2).wav
Пиковый уровень 98.8 %
Качество диапазона 99.9 %
CRC теста F48A8F55
CRC копии F48A8F55
Копирование... OK
Ошибок не произошло
AccurateRip: сводка
Трек 1 точное извлечение (доверие 5) [9DF89341]
Трек 2 точное извлечение (доверие 5) [887700B6]
Трек 3 точное извлечение (доверие 5) [0B7C73EE]
Трек 4 точное извлечение (доверие 5) [71E6C61D]
Трек 5 точное извлечение (доверие 5) [B8091307]
Трек 6 точное извлечение (доверие 5) [364B713F]
Все треки извлечены точно
Конец отчёта
 
Содержание индексной карты (.CUE)
REM GENRE Folk
REM DATE 1997
REM DISCID 4F09BD07
REM COMMENT "ExactAudioCopy v0.99pb4"
PERFORMER "Iva Bittova & Vladimir Vaclavek"
TITLE "Bile Inferno (Disc 1)"
FILE "Iva Bittova & Vladimir Vaclavek - Bile Inferno (Disc 1).wav" WAVE
TRACK 01 AUDIO
TITLE "Vzpomínka"
PERFORMER "Iva Bittova & Vladimir Vaclavek"
INDEX 01 00:00:00
TRACK 02 AUDIO
TITLE "Uspávanka"
PERFORMER "Iva Bittova & Vladimir Vaclavek"
INDEX 00 07:34:67
INDEX 01 07:38:67
TRACK 03 AUDIO
TITLE "Sirka V Louzi"
PERFORMER "Iva Bittova & Vladimir Vaclavek"
INDEX 00 13:43:20
INDEX 01 13:45:32
TRACK 04 AUDIO
TITLE "Sto Let"
PERFORMER "Iva Bittova & Vladimir Vaclavek"
INDEX 00 17:26:29
INDEX 01 17:29:72
TRACK 05 AUDIO
TITLE "Kdoule"
PERFORMER "Iva Bittova & Vladimir Vaclavek"
INDEX 00 21:45:44
INDEX 01 21:47:52
TRACK 06 AUDIO
TITLE "Zelený Vínecek"
PERFORMER "Iva Bittova & Vladimir Vaclavek"
INDEX 00 27:46:67
INDEX 01 27:49:35
TRACK 07 AUDIO
TITLE "Moucha"
PERFORMER "Iva Bittova & Vladimir Vaclavek"
INDEX 00 32:25:51
INDEX 01 32:28:17
REM GENRE "Progressive Rock"
REM DATE 1997
REM DISCID 4D085906
REM COMMENT "ExactAudioCopy v0.99pb4"
PERFORMER "Iva Bittova & Vladimir Vaclavek"
TITLE "Bile Inferno (Disc 2)"
FILE "Iva Bittova & Vladimir Vaclavek - Bile Inferno (Disc 2).wav" WAVE
TRACK 01 AUDIO
TITLE "More "
PERFORMER "Iva Bittova & Vladimir Vaclavek"
INDEX 01 00:00:00
TRACK 02 AUDIO
TITLE "Starý Mlýn"
PERFORMER "Iva Bittova & Vladimir Vaclavek"
INDEX 00 06:57:44
INDEX 01 07:01:20
TRACK 03 AUDIO
TITLE "Je Tma "
PERFORMER "Iva Bittova & Vladimir Vaclavek"
INDEX 00 10:36:24
INDEX 01 10:37:40
TRACK 04 AUDIO
TITLE "Churý Churuj"
PERFORMER "Iva Bittova & Vladimir Vaclavek"
INDEX 00 12:48:36
INDEX 01 12:51:30
TRACK 05 AUDIO
TITLE "Zvon "
PERFORMER "Iva Bittova & Vladimir Vaclavek"
INDEX 01 22:35:62
TRACK 06 AUDIO
TITLE "Huljet "
PERFORMER "Iva Bittova & Vladimir Vaclavek"
INDEX 00 32:16:31
INDEX 01 32:19:00
 
Состав
Iva Bittová - Composer, Kalimba, Percussion, Primary Artist, Producer, Unknown Contributor Role, Viola, Violin, Vocals
Vladimir Vaclavek - Guitar (Acoustic), Mandolin, Percussion, Primary Artist, Unknown Contributor Role, Vocals
Ida Kellerová – Keyboards, Unknown Contributor Role, Vocals
Children's choir – Pavlína Alexová, Alžběta Koudelková, Tereza Kerndlová, Bára Vetešníková, Vendula Halouzková
Tom Cora – Cello, Unknown Contributor Role
František Kučera – Trumpet
Jaromír Honzák – Contrabass
http://www.youtube.com/watch?v=7o0o7HxJS2A
08:27
406
Нет комментариев. Ваш будет первым!