Поиск

(Avant-Garde, Experimental,) Keiji Haino, Greg Cohen, Joey Baron - An Unclear Trial: More Than This - 1998, FLAC (tracks) lossless

Треклист:
Keiji Haino, Greg Cohen, Joey Baron / An Unclear Trial: More Than This
Жанр: Avant-Garde, Experimental,
Страна-производитель диска: Japan
Год издания диска: 1998
Издатель (лейбл): Avant
Номер по каталогу: Avan 074
Аудио кодек: FLAC (*.flac)
Тип рипа: tracks
Битрейт аудио: lossless
Продолжительность: 57:41
Источник (релизер): what.cd (theegg)
Наличие сканов в содержимом раздачи: нет
Треклист:
01. An 83 2/9 Time That Was Carried Out Here
02. An Unity With A Hole That May Come In In A Blinking Moment
03. Never Did I Imagine That There Exists An Eight-Layered Handicap
04. A Clear Consciousness That Can Only Lay The Will To "STOP"
05. Rolling On The Time And Tide, Spreading The Colour Of Red
 
Лог создания рипа
X Lossless Decoder version 20091230 (115.2)
XLD extraction logfile from 2010-01-08 08:29:15 -0500
Keiji Haino With Greg Cohen & Joey Baron / An Unclear Trial: More Than This
Used drive : MATSHITA DVD-R UJ-868 (revision KA14)
Use cdparanoia mode : YES (CDParanoia III 10.2 engine)
Disable audio cache : OK for the drive with cache less than 2750KB
Make use of C2 pointers : NO
Read offset correction : 102
Max retry count : 100
TOC of the extracted CD
Track | Start | Length | Start sector | End sector
---------------------------------------------------------
1 | 00:00:00 | 03:11:42 | 0 | 14366
2 | 03:11:42 | 01:48:15 | 14367 | 22481
3 | 04:59:57 | 30:58:03 | 22482 | 161834
4 | 35:57:60 | 06:50:42 | 161835 | 192626
5 | 42:48:27 | 14:52:68 | 192627 | 259594
Track 01
Filename : /Users/toydesign/Desktop/whatcd2/Haino Keiji With Greg Cohen & Joey Baron/ An Unclear Trial -More Than This/01 Keiji Haino With Greg Cohen & Joey Baron - An 83 2пјЏ9 Time That Was Carried Out Here.flac
Pre-gap length : 00:02:00
CRC32 hash (test run) : 7EF93ADF
CRC32 hash : 7EF93ADF
CRC32 hash (skip zero) : 86DED674
Statistics
Read error : 0
Skipped (treated as error) : 0
Edge jitter error (maybe fixed) : 0
Atom jitter error (maybe fixed) : 0
Drift error (maybe fixed) : 0
Dropped bytes error (maybe fixed) : 0
Duplicated bytes error (maybe fixed) : 0
Track 02
Filename : /Users/toydesign/Desktop/whatcd2/Haino Keiji With Greg Cohen & Joey Baron/ An Unclear Trial -More Than This/02 Keiji Haino With Greg Cohen & Joey Baron - An Unity With A Hole That May Come In In A Blinking Moment.flac
CRC32 hash (test run) : 20725093
CRC32 hash : 20725093
CRC32 hash (skip zero) : 5A398204
Statistics
Read error : 0
Skipped (treated as error) : 0
Edge jitter error (maybe fixed) : 0
Atom jitter error (maybe fixed) : 0
Drift error (maybe fixed) : 0
Dropped bytes error (maybe fixed) : 0
Duplicated bytes error (maybe fixed) : 0
Track 03
Filename : /Users/toydesign/Desktop/whatcd2/Haino Keiji With Greg Cohen & Joey Baron/ An Unclear Trial -More Than This/03 Keiji Haino With Greg Cohen & Joey Baron - Never Did I Imagine That There Exists An Eight-Layered Handicap.flac
CRC32 hash (test run) : D2B04836
CRC32 hash : D2B04836
CRC32 hash (skip zero) : BF1A3B0E
Statistics
Read error : 0
Skipped (treated as error) : 0
Edge jitter error (maybe fixed) : 0
Atom jitter error (maybe fixed) : 0
Drift error (maybe fixed) : 0
Dropped bytes error (maybe fixed) : 0
Duplicated bytes error (maybe fixed) : 0
Track 04
Filename : /Users/toydesign/Desktop/whatcd2/Haino Keiji With Greg Cohen & Joey Baron/ An Unclear Trial -More Than This/04 Keiji Haino With Greg Cohen & Joey Baron - A Clear Consciousness That Can Only Lay The Will To "STOP".flac
CRC32 hash (test run) : B6FD5FDD
CRC32 hash : B6FD5FDD
CRC32 hash (skip zero) : 7EAF1A85
Statistics
Read error : 0
Skipped (treated as error) : 0
Edge jitter error (maybe fixed) : 0
Atom jitter error (maybe fixed) : 0
Drift error (maybe fixed) : 0
Dropped bytes error (maybe fixed) : 0
Duplicated bytes error (maybe fixed) : 0
Track 05
Filename : /Users/toydesign/Desktop/whatcd2/Haino Keiji With Greg Cohen & Joey Baron/ An Unclear Trial -More Than This/05 Keiji Haino With Greg Cohen & Joey Baron - Rolling On The Time And Tide, Spreading The Colour Of Red.flac
CRC32 hash (test run) : 5B5B8AA3
CRC32 hash : 5B5B8AA3
CRC32 hash (skip zero) : E16F235B
Statistics
Read error : 0
Skipped (treated as error) : 0
Edge jitter error (maybe fixed) : 1
Atom jitter error (maybe fixed) : 1
Drift error (maybe fixed) : 0
Dropped bytes error (maybe fixed) : 0
Duplicated bytes error (maybe fixed) : 1
No errors occurred
End of status report
 
Лог проверки качества
AUDIOCHECKER v2.0 beta (build 457) - by Dester - opdester@freemail.hu
~~~~~~~~~~~~~~~~~~~~~~~~~~~~~~~~~~
-=== НЕ РЕДАКТИРУЙТЕ ЭТОТ ФАЙЛ! ===-
Путь: ...\1996-An Unclear Trial - More Than This [1998, Avant Avan 074]
1 -=- 01 An 83 2-9 Time That Was Carried Out Here.flac -=- CDDA (99%)
2 -=- 02 An Unity With A Hole That May Come In In A Blinking Moment.flac -=- CDDA (99%)
3 -=- 03 Never Did I Imagine That There Exists An Eight-Layered Handicap.flac -=- CDDA (99%)
4 -=- 04 A Clear Consciousness That Can Only Lay The Will To _STOP_.flac -=- CDDA (100%)
5 -=- 05 Rolling On The Time And Tide, Spreading The Colour Of Red.flac -=- CDDA (100%)
Сводка 99,40% CDDA
187102740
Доп. информация: Recorded on July 15-17, 1996 at Baby Monster Studio, NYC.
Mastered at Foothill Digital, NYC.
With obi strip.
(C)(P) 1998 Disk Union.
 
Состав
Keiji Haino: guitar
Greg Cohen: bass
Joey Baron: drums
Composed By - Greg Cohen , Joey Baron , Haino Keiji*
Design [Cover], Photography - Arai Yasunori*
Executive Producer - John Zorn / Disk Union
Executive Producer [Associate Producer] - Kazunori Sugiyama
Mastered By - Allan Tucker
Producer - Haino Keiji*
Recorded By, Mixed By - Jim Anderson
Download available for power users only.
03:28
298
Нет комментариев. Ваш будет первым!