Поиск

(Avant-Garde) Equal Interest (Joseph Jarman / Leroy Jenkins / Myra Melford) - Equal Interest - 1999, FLAC (image+.cue), lossless

(Avant-Garde) Equal Interest (Joseph Jarman / Leroy Jenkins / Myra Melford) - Equal Interest - 1999, FLAC (image+.cue), lossless
Треклист:
Equal Interest (Joseph Jarman / Leroy Jenkins / Myra Melford) - Equal Interest
Жанр: Avant-Garde
Год выпуска диска: 1999
Производитель диска: USA (OmniTone 12001)
Аудио кодек: FLAC
Тип рипа: image+.cue
Битрейт аудио: lossless
Продолжительность: 59:15
Трэклист:
Joseph Jarman flute, alto saxophone, Turkish hand drum, Vietnamese oboe, wind chimes
Leroy Jenkins violin, viola
Myra Melford piano, harmonium, foot
1. B'Pale Night
2. Rondo for Jenny
3. Over This / Living Music
4. Poem Song
5. In the Moment
6. The Beauty We Love
7. Everything Today
8. Apricots from Eden (Sourmaloui Jerk)
Recorded live to two-track on 2-3 August 1999 at Sear Sound, New York.

 
AMG Review
At the vanguard of the past and present creative improvised jazz movement, these three brilliant musicians come together in continually surprising ways. The depth of their collective spirituality is most impressive, but the music virtually bursts with passion and vibrancy. There is also an equally shared compositional stance. Jenkins (on violin and viola) contributes "B'Pale Night," with swirling melodic improvs surrounding Jarman's alto sax and blue string counterpoint, Melford's piano circling around it all, plus some cartoonish unison lines. "In the Moment" emphasizes harder-edged, darker spontaneity, rich in counterpoint, demonstrating intense listening and responding. Jarman gives the trio another two pieces: "Rondo for Jenny" has Melford on harmonium as a South Indian-based flute-violin unison and Vietnamese oboe solo bring about an air of stark mysticism, while the 13-minute-plus "Poem Song" is one of the more beautiful pieces of music you will ever hear -- fanfare viola introducing serene, meditational flute and delicately constructed, flowing piano. Of Melford's three pieces, "Over This/Living Music" splits time between her 5/4 piano, which sets the pace for skittering violin and flute, and gently plucked strings which back Jarman's solo, with more pensive call and response at the end. "The Beauty We Love" has swelling harmonium under layered strings and alto, while "Everything Today" sports a 6/8 start-up, more free alto, repeated piano lines, and Jenkins' scattershot strings joining clever, spirited, uplifting writing. The finale is a traditional Armenian piece, "Apricots for Eden"; Jarman's tambourine-sounding Turkish hand drum and Melford's harmonium travel at a patient pace, then are inspired to dancing motifs. Following up the prelude to this recording, Out of the Mist (Ocean), this trio has exploded into a most impressive improvising unit that will hopefully continue to bring us miracles like this highly recommended CD. ~ Michael G. Nastos, AMG
 
EAC Report
Exact Audio Copy V0.99 prebeta 4 from 23. January 2008
EAC extraction logfile from 2. September 2009, 9:51
Equal Interest / Equal Interest
Used drive : HL-DT-STDVD-ROM GDR8162B Adapter: 1 ID: 0
Read mode : Secure
Utilize accurate stream : Yes
Defeat audio cache : Yes
Make use of C2 pointers : No
Read offset correction : 102
Overread into Lead-In and Lead-Out : No
Fill up missing offset samples with silence : Yes
Delete leading and trailing silent blocks : No
Null samples used in CRC calculations : Yes
Used interface : Installed external ASPI interface
Used output format : User Defined Encoder
Selected bitrate : 1024 kBit/s
Quality : High
Add ID3 tag : No
Command line compressor : C:\Program Files\Exact Audio Copy\FLAC\FLAC.EXE
Additional command line options : -6 -V -T "ARTIST=%a" -T "TITLE=%t" -T "ALBUM=%g" -T "DATE=%y" -T "TRACKNUMBER=%n" -T "GENRE=%m" -T "COMMENT=%e" %s -o %d
TOC of the extracted CD
Track | Start | Length | Start sector | End sector
---------------------------------------------------------
1 | 0:00.00 | 6:19.10 | 0 | 28434
2 | 6:19.10 | 7:13.48 | 28435 | 60957
3 | 13:32.58 | 10:46.20 | 60958 | 109427
4 | 24:19.03 | 13:24.29 | 109428 | 169756
5 | 37:43.32 | 6:05.70 | 169757 | 197201
6 | 43:49.27 | 5:30.58 | 197202 | 222009
7 | 49:20.10 | 3:36.38 | 222010 | 238247
8 | 52:56.48 | 6:20.47 | 238248 | 266794
Range status and errors
Selected range
Filename C:\eac\Equal Interest - Equal Interest.wav
Peak level 99.1 %
Range quality 100.0 %
Test CRC BF9B9477
Copy CRC BF9B9477
Copy OK
No errors occurred
End of status report
Download available for power users only.
15:02
499
Нет комментариев. Ваш будет первым!