Вы используете незарегистрированную версию компонента "Вкладки"!

Поиск

(avant-garde) Ellery Eskelin with Andrea Parkins & Jim Black - One Great Night...Live 2009, FLAC (tracks+.cue), lossless

Треклист:


Ellery Eskelin with Andrea Parkins & Jim Black
One Great Night...Live
Жанр: avant-garde
Год выпуска: 2009
Издатель (лейбл):
Формат: FLAC (tracks+.cue)
Битрейт аудио: lossless
Продолжительность 1`09`11
Источник: what.cd
Accordion, Computer, Organ, Electric Piano, Grand Piano – Andrea Parkins
Composed By, Photography By, Producer, Tenor Saxophone – Ellery Eskelin
Drums – Jim Black

tracks

01 The Decider
02 For No Good Reason
03 Coordinated Universal Time
04 Split The Difference
05 Instant Counterpoint
06 I Should Have Known
07 Half A Chance


 
.log
Exact Audio Copy V1.0 beta 3 from 29. August 2011
EAC extraction logfile from 2. July 2012, 8:02
Ellery Eskelin with Andrea Parkins & Jim Black / One Great Night...Live
Used drive : TSSTcorpCDDVDW SE-S084F Adapter: 1 ID: 0
Read mode : Secure
Utilize accurate stream : Yes
Defeat audio cache : Yes
Make use of C2 pointers : No
Read offset correction : 6
Overread into Lead-In and Lead-Out : No
Fill up missing offset samples with silence : Yes
Delete leading and trailing silent blocks : No
Null samples used in CRC calculations : Yes
Used interface : Native Win32 interface for Win NT & 2000
Gap handling : Appended to previous track
Used output format : User Defined Encoder
Selected bitrate : 1024 kBit/s
Quality : High
Add ID3 tag : No
Command line compressor : C:\Program Files (x86)\Exact Audio Copy\FLAC\FLAC.EXE
Additional command line options : -8 -V -T "ARTIST=%artist%" -T "TITLE=%title%" -T "ALBUM=%albumtitle%" -T "DATE=%year%" -T "TRACKNUMBER=%tracknr%" -T "GENRE=%genre%" -T "PERFORMER=%albuminterpret%" -T "COMPOSER=%composer%" %haslyrics%--tag-from-file=LYRICS="%lyricsfile%"%haslyrics% -T "ALBUMARTIST=%albumartist%" -T "DISCNUMBER=%cdnumber%" -T "TOTALDISCS=%totalcds%" -T "TOTALTRACKS=%numtracks%" -T "COMMENT=%comment%" %source% -o %dest%
TOC of the extracted CD
Track | Start | Length | Start sector | End sector
---------------------------------------------------------
1 | 0:00.00 | 12:24.64 | 0 | 55863
2 | 12:24.64 | 11:19.74 | 55864 | 106862
3 | 23:44.63 | 9:57.23 | 106863 | 151660
4 | 33:42.11 | 7:30.00 | 151661 | 185410
5 | 41:12.11 | 11:55.66 | 185411 | 239101
6 | 53:08.02 | 9:16.22 | 239102 | 280823
7 | 62:24.24 | 6:46.59 | 280824 | 311332
Track 1
Filename F:\Musique Flac\[Label] HAT HUT Records\Ellery Eskelin with Andrea Parkins & Jim Black - One Great Night...Live\01 - The Decider .wav
Pre-gap length 0:00:02.00
Peak level 99.9 %
Extraction speed 2.4 X
Track quality 100.0 %
Test CRC B9DBD231
Copy CRC B9DBD231
Track not present in AccurateRip database
Copy OK
Track 2
Filename F:\Musique Flac\[Label] HAT HUT Records\Ellery Eskelin with Andrea Parkins & Jim Black - One Great Night...Live\02 - For No Good Reason .wav
Peak level 99.1 %
Extraction speed 3.1 X
Track quality 100.0 %
Test CRC B20A8817
Copy CRC B20A8817
Track not present in AccurateRip database
Copy OK
Track 3
Filename F:\Musique Flac\[Label] HAT HUT Records\Ellery Eskelin with Andrea Parkins & Jim Black - One Great Night...Live\03 - Coordinated Universal Time .wav
Peak level 98.8 %
Extraction speed 3.5 X
Track quality 100.0 %
Test CRC DF65176F
Copy CRC DF65176F
Track not present in AccurateRip database
Copy OK
Track 4
Filename F:\Musique Flac\[Label] HAT HUT Records\Ellery Eskelin with Andrea Parkins & Jim Black - One Great Night...Live\04 - Split The Difference .wav
Peak level 99.7 %
Extraction speed 3.8 X
Track quality 100.0 %
Test CRC F2721AE8
Copy CRC F2721AE8
Track not present in AccurateRip database
Copy OK
Track 5
Filename F:\Musique Flac\[Label] HAT HUT Records\Ellery Eskelin with Andrea Parkins & Jim Black - One Great Night...Live\05 - Instant Counterpoint .wav
Peak level 99.6 %
Extraction speed 4.2 X
Track quality 100.0 %
Test CRC 1184339F
Copy CRC 1184339F
Track not present in AccurateRip database
Copy OK
Track 6
Filename F:\Musique Flac\[Label] HAT HUT Records\Ellery Eskelin with Andrea Parkins & Jim Black - One Great Night...Live\06 - I Should Have Known .wav
Peak level 87.3 %
Extraction speed 4.4 X
Track quality 100.0 %
Test CRC 6387C55F
Copy CRC 6387C55F
Track not present in AccurateRip database
Copy OK
Track 7
Filename F:\Musique Flac\[Label] HAT HUT Records\Ellery Eskelin with Andrea Parkins & Jim Black - One Great Night...Live\07 - Half A Chance .wav
Peak level 98.8 %
Extraction speed 2.4 X
Track quality 99.8 %
Test CRC 4D13F228
Copy CRC 4D13F228
Track not present in AccurateRip database
Copy OK
None of the tracks are present in the AccurateRip database
No errors occurred
End of status report
---- CUETools DB Plugin V2.1.3
[CTDB TOCID: zKa6hIPM5HW6DMs4HxrvkfikvVY-] database access error: Le nom distant n'a pas pu être résolu: 'db.cuetools.net'
==== Log checksum 4FB08323FED46E994FA64091F9E6A81E580E31C82A9596E57C5B7947CE7506D8 ====
 
.cue
REM GENRE Jazz
REM DATE 2009
REM DISCID 5A103707
REM COMMENT "ExactAudioCopy v1.0b3"
PERFORMER "Ellery Eskelin with Andrea Parkins & Jim Black"
TITLE "One Great Night...Live"
FILE "01 - The Decider .wav" WAVE
TRACK 01 AUDIO
TITLE "The Decider"
PERFORMER "Ellery Eskelin with Andrea Parkins & Jim Black"
ISRC CH1310901099
INDEX 01 00:00:00
FILE "02 - For No Good Reason .wav" WAVE
TRACK 02 AUDIO
TITLE "For No Good Reason"
PERFORMER "Ellery Eskelin with Andrea Parkins & Jim Black"
ISRC CH1310901099
INDEX 01 00:00:00
FILE "03 - Coordinated Universal Time .wav" WAVE
TRACK 03 AUDIO
TITLE "Coordinated Universal Time"
PERFORMER "Ellery Eskelin with Andrea Parkins & Jim Black"
ISRC CH1310901101
INDEX 01 00:00:00
FILE "04 - Split The Difference .wav" WAVE
TRACK 04 AUDIO
TITLE "Split The Difference"
PERFORMER "Ellery Eskelin with Andrea Parkins & Jim Black"
ISRC CH1310901102
INDEX 01 00:00:00
FILE "05 - Instant Counterpoint .wav" WAVE
TRACK 05 AUDIO
TITLE "Instant Counterpoint"
PERFORMER "Ellery Eskelin with Andrea Parkins & Jim Black"
ISRC CH1310901103
INDEX 01 00:00:00
FILE "06 - I Should Have Known .wav" WAVE
TRACK 06 AUDIO
TITLE "I Should Have Known"
PERFORMER "Ellery Eskelin with Andrea Parkins & Jim Black"
ISRC CH1310901104
INDEX 01 00:00:00
FILE "07 - Half A Chance .wav" WAVE
TRACK 07 AUDIO
TITLE "Half A Chance"
PERFORMER "Ellery Eskelin with Andrea Parkins & Jim Black"
ISRC CH1310901104
INDEX 01 00:00:00
 
.accurip
[CUETools log; Date: 17/07/12 12:18:35; Version: 2.1.2a]
[CTDB TOCID: zKa6hIPM5HW6DMs4HxrvkfikvVY-] found.
[ CTDBID ] Status
[5163feaf] (1/2) Accurately ripped
[2c882c9b] (1/2) No match
[AccurateRip ID: 00144f72-0077e3a5-5a103707] found.
Track [ CRC ] Status
01 [49a06c28] (3/3) Accurately ripped
02 [dd0b65f3] (3/3) Accurately ripped
03 [a67fb9af] (3/3) Accurately ripped
04 [be83599a] (2/2) Accurately ripped
05 [971d8b6c] (2/2) Accurately ripped
06 [774ce266] (2/2) Accurately ripped
07 [f31fa9c1] (2/2) Accurately ripped
Track Peak [ CRC32 ] [W/O NULL] [ LOG ]
-- 99.9 [C43D14EC] [E04526EE]
01 99.9 [B9DBD231] [D4B2E3E3] CRC32
02 99.1 [B20A8817] [A1678931] CRC32
03 98.8 [DF65176F] [1ADE2340] CRC32
04 99.7 [F2721AE8] [001FECE0] CRC32
05 99.6 [1184339F] [275F98A7] CRC32
06 87.3 [6387C55F] [443D4E2D] CRC32
07 98.8 [4D13F228] [19B9713F] CRC32

другие релизы
Any questions -> support@pro-jazz.com. По всем вопросам пишите -> support@pro-jazz.com
02:28
161
Нет комментариев. Ваш будет первым!