Поиск

(Avant-Garde, e2e) Bojan Z - Xenophonia - 2006, FLAC (tracks + .cue), lossless

(Avant-Garde, e2e) Bojan Z - Xenophonia - 2006, FLAC (tracks + .cue), lossless
Треклист:
Bojan Z - Xenophonia
Жанр: Avant-Garde
Год выпуска: 2006
Формат: FLAC (tracks + .cue)
Битрейт аудио: lossless
Трэклист:
1. ULAZ
2. ZEVEN
3. WHEELS
4. BIGGUS D
5. ASHES TO ASHES
6. PENDANT CE TEMPS, CHEZ LE GENERAL...
7. XENOS BLUES
8. THE MOHICAN AND THE GREAT SPIRIT
9. CD-rom
10. IZLAZ
Доп. информация:
Remi Vignolo: double bass
Ari Hoenig: drums on 2,3,4,8 & 10
Ben Perowsky: drums on 1,5,6,7 & 9
Bojan Zulfikarpasic: piano, fender rhodes, xenophone
Krassen Lutzkanov: kaval on 1 & 9
Bleu
 
EAC log
Exact Audio Copy V0.99 prebeta 4 from 23. January 2008
EAC extraction logfile from 13. June 2008, 17:51
Bojan Z / Xenophonia
Used drive : _NEC DVD_RW ND-3500AG Adapter: 0 ID: 1
Read mode : Secure
Utilize accurate stream : Yes
Defeat audio cache : Yes
Make use of C2 pointers : No
Read offset correction : 48
Overread into Lead-In and Lead-Out : No
Fill up missing offset samples with silence : Yes
Delete leading and trailing silent blocks : No
Null samples used in CRC calculations : Yes
Used interface : Native Win32 interface for Win NT & 2000
Gap handling : Appended to previous track
Used output format : User Defined Encoder
Selected bitrate : 128 kBit/s
Quality : High
Add ID3 tag : No
Command line compressor : C:\Program Files\FLAC\flac.exe
Additional command line options : -8 -V -T "ARTIST=%a" -T "TITLE=%t" -T "ALBUM=%g" -T "DATE=%y" -T "TRACKNUMBER=%n" -T "GENRE=%m" -T "COMMENT=EAC FLAC -8" %s
TOC of the extracted CD
Track | Start | Length | Start sector | End sector
---------------------------------------------------------
1 | 0:00.00 | 7:21.22 | 0 | 33096
2 | 7:21.22 | 5:55.07 | 33097 | 59728
3 | 13:16.29 | 9:06.13 | 59729 | 100691
4 | 22:22.42 | 7:20.60 | 100692 | 133751
5 | 29:43.27 | 4:50.08 | 133752 | 155509
6 | 34:33.35 | 4:25.05 | 155510 | 175389
7 | 38:58.40 | 7:13.22 | 175390 | 207886
8 | 46:11.62 | 6:21.31 | 207887 | 236492
9 | 52:33.18 | 5:01.38 | 236493 | 259105
10 | 57:34.56 | 2:35.39 | 259106 | 270769
Track 1
Filename N:\Download P\Bojan Z - Xenophonia (2006) [FLAC]\01 - Ulaz.wav
Pre-gap length 0:00:02.00
Peak level 100.0 %
Track quality 99.9 %
Test CRC B27707FE
Copy CRC B27707FE
Copy OK
Track 2
Filename N:\Download P\Bojan Z - Xenophonia (2006) [FLAC]\02 - Zeven.wav
Peak level 100.0 %
Track quality 100.0 %
Test CRC 52ADF888
Copy CRC 52ADF888
Copy OK
Track 3
Filename N:\Download P\Bojan Z - Xenophonia (2006) [FLAC]\03 - Wheels.wav
Pre-gap length 0:00:03.12
Peak level 100.0 %
Track quality 100.0 %
Test CRC 44F0606D
Copy CRC 44F0606D
Copy OK
Track 4
Filename N:\Download P\Bojan Z - Xenophonia (2006) [FLAC]\04 - Biggus D.wav
Pre-gap length 0:00:04.34
Peak level 100.0 %
Track quality 100.0 %
Test CRC 797E4905
Copy CRC 797E4905
Copy OK
Track 5
Filename N:\Download P\Bojan Z - Xenophonia (2006) [FLAC]\05 - Ashes to ashes.wav
Pre-gap length 0:00:07.26
Peak level 100.0 %
Track quality 100.0 %
Test CRC 8678F531
Copy CRC 8678F531
Copy OK
Track 6
Filename N:\Download P\Bojan Z - Xenophonia (2006) [FLAC]\06 - Pendant ce temps chez le general.wav
Pre-gap length 0:00:03.52
Peak level 100.0 %
Track quality 100.0 %
Test CRC D2CA9E80
Copy CRC D2CA9E80
Copy OK
Track 7
Filename N:\Download P\Bojan Z - Xenophonia (2006) [FLAC]\07 - Xeos Blues.wav
Pre-gap length 0:00:16.30
Peak level 100.0 %
Track quality 100.0 %
Test CRC BC15EBA0
Copy CRC BC15EBA0
Copy OK
Track 8
Filename N:\Download P\Bojan Z - Xenophonia (2006) [FLAC]\08 - The mohican and the great spirit.wav
Pre-gap length 0:00:05.12
Peak level 100.0 %
Track quality 100.0 %
Test CRC D43EB5D0
Copy CRC D43EB5D0
Copy OK
Track 9
Filename N:\Download P\Bojan Z - Xenophonia (2006) [FLAC]\09 - CD-Rom.wav
Pre-gap length 0:00:01.01
Peak level 100.0 %
Track quality 99.9 %
Test CRC A2A0FCBE
Copy CRC A2A0FCBE
Copy OK
Track 10
Filename N:\Download P\Bojan Z - Xenophonia (2006) [FLAC]\10 - Izlaz.wav
Pre-gap length 0:00:04.86
Peak level 100.0 %
Track quality 100.0 %
Test CRC D86BE11B
Copy CRC D86BE11B
Copy OK
No errors occurred
End of status report
"Пианист Боян Зульфикарпачич в 1986 году в возрасте 18 лет получил грант от голливудско-джазового классика Клэра Фишера, но после трехмесячных курсов в США вернулся в Югославию, отслужил в армии и уехал во Францию. Где талант юного боснийца сразу же оценили первые люди новоджазовой Франции Луи Склавис, Ноэль Акшотт, Мишель Порталь, Анри Тексье..."
Здесь можно послушать фрагменты с разных альбомов.
Приватный:
Нет (DHT включён)
Размер:
426.66 Мб (447,382,982 байт) » файлов: 24
Участники:
0 раздают, 0 качают (0 участников всего)
Внешние участники:
2 раздают, 1 качают (3 участников всего) [ Обновить ]
No seeders - write a personal message to user M0p94ok. Нет сидеров - пишите личное сообщение пользователю M0p94ok.
22:14
62
Нет комментариев. Ваш будет первым!