Вы используете незарегистрированную версию компонента "Вкладки"!

Поиск

(Avant-Garde, Contemporary Jazz, Unit Records) Lucien Dubuis Trio - Future Rock - 2012, FLAC (tracks+.cue), lossless

(Avant-Garde, Contemporary Jazz, Unit Records) Lucien Dubuis Trio - Future Rock - 2012, FLAC (tracks+.cue), lossless
Треклист:
Lucien Dubuis Trio / Future Rock
Жанр: Avant-Garde, Contemporary Jazz, Unit Records
Страна-производитель диска: Switzerland
Год издания: 2012
Издатель (лейбл): Unit Records
Номер по каталогу: UTR 4408
Аудиокодек: FLAC (*.flac)
Тип рипа: tracks+.cue
Битрейт аудио: lossless
Продолжительность: 51:39
Источник (релизер): Max Monteiro
Наличие сканов в содержимом раздачи: да
Треклист:
01. En descendant de la montagne 3:49
02. Eva 7:08
03. En bus 3:53
04. Blanche 3:41
05. Le Cockpit 3:55
06. 4 Wände 3:15
07. Star Loves 4:04
08. Yiwu Shan 4:18
09. Lin Ying Hao 2:10
10. Schnitzel paniert mit Brot 3:37
11. Lançang 4:46
12. I’ll Talk to You 3:39
13. George W. Bush 3:25
All tracks composed by Lucien Dubuis except 13 by Roman Nowka.
 
Лог создания рипа
Exact Audio Copy V1.0 beta 3 from 29. August 2011
EAC extraction logfile from 22. May 2013, 14:05
Lucien Dubuis Trio / Future Rock
Used drive : SlimtypeeNAU508 5 Adapter: 1 ID: 0
Read mode : Secure
Utilize accurate stream : Yes
Defeat audio cache : Yes
Make use of C2 pointers : No
Read offset correction : 6
Overread into Lead-In and Lead-Out : No
Fill up missing offset samples with silence : Yes
Delete leading and trailing silent blocks : No
Null samples used in CRC calculations : Yes
Used interface : Native Win32 interface for Win NT & 2000
Gap handling : Appended to previous track
Used output format : User Defined Encoder
Selected bitrate : 768 kBit/s
Quality : High
Add ID3 tag : No
Command line compressor : C:\Program Files (x86)\Exact Audio Copy\Flac\flac.exe
Additional command line options : -8 -V -T "ARTIST=%artist%" -T "TITLE=%title%" -T "ALBUM=%albumtitle%" -T "DATE=%year%" -T "TRACKNUMBER=%tracknr%" -T "GENRE=%genre%" -T "PERFORMER=%albuminterpret%" -T "COMPOSER=%composer%" %haslyrics%--tag-from-file=LYRICS="%lyricsfile%"%haslyrics% -T "ALBUMARTIST=%albumartist%" -T "DISCNUMBER=%cdnumber%" -T "TOTALDISCS=%totalcds%" -T "TOTALTRACKS=%numtracks%" -T "COMMENT=%comment%" %source% -o %dest%
TOC of the extracted CD
Track | Start | Length | Start sector | End sector
---------------------------------------------------------
1 | 0:00.00 | 3:48.74 | 0 | 17173
2 | 3:48.74 | 7:07.41 | 17174 | 49239
3 | 10:56.40 | 3:52.47 | 49240 | 66686
4 | 14:49.12 | 3:41.30 | 66687 | 83291
5 | 18:30.42 | 3:54.50 | 83292 | 100891
6 | 22:25.17 | 3:14.45 | 100892 | 115486
7 | 25:39.62 | 4:03.74 | 115487 | 133785
8 | 29:43.61 | 4:17.61 | 133786 | 153121
9 | 34:01.47 | 2:10.17 | 153122 | 162888
10 | 36:11.64 | 3:37.18 | 162889 | 179181
11 | 39:49.07 | 4:46.32 | 179182 | 200663
12 | 44:35.39 | 3:38.65 | 200664 | 217078
13 | 48:14.29 | 3:24.48 | 217079 | 232426
Track 1
Filename C:\EAC rips\01 - En descendant de la montagne.wav
Pre-gap length 0:00:02.00
Peak level 96.6 %
Extraction speed 1.0 X
Track quality 100.0 %
Test CRC 4ECD4B46
Copy CRC 4ECD4B46
Track not present in AccurateRip database
Copy OK
Track 2
Filename C:\EAC rips\02 - Eva.wav
Pre-gap length 0:00:00.10
Peak level 96.6 %
Extraction speed 1.3 X
Track quality 100.0 %
Test CRC FC668504
Copy CRC FC668504
Track not present in AccurateRip database
Copy OK
Track 3
Filename C:\EAC rips\03 - En bus.wav
Pre-gap length 0:00:00.01
Peak level 96.6 %
Extraction speed 1.3 X
Track quality 100.0 %
Test CRC 259D303F
Copy CRC 259D303F
Track not present in AccurateRip database
Copy OK
Track 4
Filename C:\EAC rips\04 - Blanche.wav
Pre-gap length 0:00:00.71
Peak level 96.6 %
Extraction speed 1.2 X
Track quality 99.9 %
Test CRC 249B0100
Copy CRC 249B0100
Track not present in AccurateRip database
Copy OK
Track 5
Filename C:\EAC rips\05 - Le Cockpit.wav
Pre-gap length 0:00:02.00
Peak level 96.6 %
Extraction speed 1.5 X
Track quality 100.0 %
Test CRC C974BEB7
Copy CRC C974BEB7
Track not present in AccurateRip database
Copy OK
Track 6
Filename C:\EAC rips\06 - 4 Wände.wav
Pre-gap length 0:00:01.11
Peak level 96.6 %
Extraction speed 1.6 X
Track quality 100.0 %
Test CRC F7976F73
Copy CRC F7976F73
Track not present in AccurateRip database
Copy OK
Track 7
Filename C:\EAC rips\07 - Star Loves.wav
Pre-gap length 0:00:02.00
Peak level 96.6 %
Extraction speed 1.5 X
Track quality 99.9 %
Test CRC F55B3BCC
Copy CRC F55B3BCC
Track not present in AccurateRip database
Copy OK
Track 8
Filename C:\EAC rips\08 - Yiwu Shan.wav
Pre-gap length 0:00:02.00
Peak level 96.6 %
Extraction speed 1.8 X
Track quality 100.0 %
Test CRC 7B64E9D5
Copy CRC 7B64E9D5
Track not present in AccurateRip database
Copy OK
Track 9
Filename C:\EAC rips\09 - Lin Ying Hao.wav
Pre-gap length 0:00:00.08
Peak level 96.6 %
Extraction speed 1.6 X
Track quality 100.0 %
Test CRC 8BA9EB60
Copy CRC 8BA9EB60
Track not present in AccurateRip database
Copy OK
Track 10
Filename C:\EAC rips\10 - Schnitzel paniert mit Brot.wav
Pre-gap length 0:00:02.00
Peak level 96.6 %
Extraction speed 1.8 X
Track quality 100.0 %
Test CRC 1E73178E
Copy CRC 1E73178E
Track not present in AccurateRip database
Copy OK
Track 11
Filename C:\EAC rips\11 - Lançang.wav
Pre-gap length 0:00:01.27
Peak level 96.6 %
Extraction speed 2.0 X
Track quality 100.0 %
Test CRC 585BD9EA
Copy CRC 585BD9EA
Track not present in AccurateRip database
Copy OK
Track 12
Filename C:\EAC rips\12 - I'll Talk to You.wav
Pre-gap length 0:00:00.17
Peak level 96.6 %
Extraction speed 2.0 X
Track quality 100.0 %
Test CRC E4E57C1C
Copy CRC E4E57C1C
Track not present in AccurateRip database
Copy OK
Track 13
Filename C:\EAC rips\13 - George W. Bush.wav
Pre-gap length 0:00:02.00
Peak level 96.6 %
Extraction speed 2.0 X
Track quality 100.0 %
Test CRC 6A2A84A1
Copy CRC 6A2A84A1
Track not present in AccurateRip database
Copy OK
None of the tracks are present in the AccurateRip database
No errors occurred
End of status report
---- CUETools DB Plugin V2.1.4
[CTDB TOCID: uyDNRFlsfPJoLtENquXzvJGu_ms-] disk not present in database
Submit result: uyDNRFlsfPJoLtENquXzvJGu_ms- has been uploaded
==== Log checksum 894B0CFE725D9247866976FEA4B4DC7C3DBCAA642BF68D6D2E4CA8C714000E4C ====
 
Содержание индексной карты (.CUE)
REM GENRE Jazz
REM DATE 2012
REM DISCID B40C1B0D
REM COMMENT "ExactAudioCopy v1.0b3"
PERFORMER "Lucien Dubuis Trio"
TITLE "Future Rock"
FILE "01 - En descendant de la montagne.wav" WAVE
TRACK 01 AUDIO
TITLE "En descendant de la montagne"
PERFORMER "Lucien Dubuis Trio"
INDEX 01 00:00:00
TRACK 02 AUDIO
TITLE "Eva"
PERFORMER "Lucien Dubuis Trio"
INDEX 00 03:48:64
FILE "02 - Eva.wav" WAVE
INDEX 01 00:00:00
TRACK 03 AUDIO
TITLE "En bus"
PERFORMER "Lucien Dubuis Trio"
INDEX 00 07:07:40
FILE "03 - En bus.wav" WAVE
INDEX 01 00:00:00
TRACK 04 AUDIO
TITLE "Blanche"
PERFORMER "Lucien Dubuis Trio"
INDEX 00 03:51:51
FILE "04 - Blanche.wav" WAVE
INDEX 01 00:00:00
TRACK 05 AUDIO
TITLE "Le Cockpit"
PERFORMER "Lucien Dubuis Trio"
INDEX 00 03:39:30
FILE "05 - Le Cockpit.wav" WAVE
INDEX 01 00:00:00
TRACK 06 AUDIO
TITLE "4 Wände"
PERFORMER "Lucien Dubuis Trio"
INDEX 00 03:53:39
FILE "06 - 4 Wände.wav" WAVE
INDEX 01 00:00:00
TRACK 07 AUDIO
TITLE "Star Loves"
PERFORMER "Lucien Dubuis Trio"
INDEX 00 03:12:45
FILE "07 - Star Loves.wav" WAVE
INDEX 01 00:00:00
TRACK 08 AUDIO
TITLE "Yiwu Shan"
PERFORMER "Lucien Dubuis Trio"
INDEX 00 04:01:74
FILE "08 - Yiwu Shan.wav" WAVE
INDEX 01 00:00:00
TRACK 09 AUDIO
TITLE "Lin Ying Hao"
PERFORMER "Lucien Dubuis Trio"
INDEX 00 04:17:53
FILE "09 - Lin Ying Hao.wav" WAVE
INDEX 01 00:00:00
TRACK 10 AUDIO
TITLE "Schnitzel paniert mit Brot"
PERFORMER "Lucien Dubuis Trio"
INDEX 00 02:08:17
FILE "10 - Schnitzel paniert mit Brot.wav" WAVE
INDEX 01 00:00:00
TRACK 11 AUDIO
TITLE "Lançang"
PERFORMER "Lucien Dubuis Trio"
INDEX 00 03:35:66
FILE "11 - Lançang.wav" WAVE
INDEX 01 00:00:00
TRACK 12 AUDIO
TITLE "I'll Talk to You"
PERFORMER "Lucien Dubuis Trio"
INDEX 00 04:46:15
FILE "12 - I'll Talk to You.wav" WAVE
INDEX 01 00:00:00
TRACK 13 AUDIO
TITLE "George W. Bush"
PERFORMER "Lucien Dubuis Trio"
INDEX 00 03:36:65
FILE "13 - George W. Bush.wav" WAVE
INDEX 01 00:00:00
Доп. информация: Recorded at Eastside Studio Sound, New York, November & December 2011.
 
Состав
Lucien Dubuis – Alto Saxophone, Bass Clarinet, Contrabass Clarinet
Roman Nowka – Bass, Guitar
Lionel Friedli – Drums
Guest : Miro Caltagirone – Vocals on 1 & 7
Any questions -> support@pro-jazz.com. По всем вопросам пишите -> support@pro-jazz.com
13:43
143
Нет комментариев. Ваш будет первым!