Вы используете незарегистрированную версию компонента "Вкладки"!

Поиск

(Avant-Garde, Contemporary Jazz, Unit Records) Lucien Dubuis Trio & The Spacetet - Design Your Future - 2013, FLAC (tracks+.cue), lossless

(Avant-Garde, Contemporary Jazz, Unit Records) Lucien Dubuis Trio & The Spacetet - Design Your Future - 2013, FLAC (tracks+.cue), lossless
Треклист:
Lucien Dubuis Trio & The Spacetet / Design Your Future
Жанр: Avant-Garde, Contemporary Jazz, Unit Records
Страна-производитель диска: Switzerland
Год издания: 2013
Издатель (лейбл): Unit Records
Номер по каталогу: UTR 4445
Аудиокодек: FLAC (*.flac)
Тип рипа: tracks+.cue
Битрейт аудио: lossless
Продолжительность: 1:10:22
Источник (релизер): Max Monteiro
Наличие сканов в содержимом раздачи: да
Треклист:
01. Albumblatt für Herrn Schprögel 11:14
02. Pàrl 4:03
03. Au bois 6:03
04. Suite en Eb : andante misterioso 6:14
05. Suite en Eb : agitato 5:07
06. Suite en Eb : zoppicando 4:54
07. Suite en Eb : tempestoso 5:13
08. Lalila 6:59
09. Autägleche Waudverchehr 6:23
10. Au bois (Spacetet version) 3:25
11. Design Your Future 7:37
12. Oh My God 3:09
1-11 composed by Lucien Dubuis.
12 composed by Roman Nowka and arranged by Lucien Dubuis.
Recorded at Studio mécanique, La Chaux-de-Fonds, February 2013.
Lucien Dubuis – Alto Saxophone, Bass Clarinet, Contrabass Clarinet
Roman Nowka – Bass, Guitar
Lionel Friedli – Drums
Estelle Beiner – Violin
Regula Schwab – Violin
Isabelle Gottraux – Viola
Barbara Gasser – Cello
 
Лог создания рипа
Exact Audio Copy V1.0 beta 3 from 29. August 2011
EAC extraction logfile from 18. August 2013, 14:58
Lucien Dubuis Trio & The Spacetet / Design Your Future
Used drive : SlimtypeeNAU508 5 Adapter: 1 ID: 0
Read mode : Secure
Utilize accurate stream : Yes
Defeat audio cache : Yes
Make use of C2 pointers : No
Read offset correction : 6
Overread into Lead-In and Lead-Out : No
Fill up missing offset samples with silence : Yes
Delete leading and trailing silent blocks : No
Null samples used in CRC calculations : Yes
Used interface : Native Win32 interface for Win NT & 2000
Gap handling : Appended to previous track
Used output format : User Defined Encoder
Selected bitrate : 768 kBit/s
Quality : High
Add ID3 tag : No
Command line compressor : C:\Program Files (x86)\Exact Audio Copy\Flac\flac.exe
Additional command line options : -8 -V -T "ARTIST=%artist%" -T "TITLE=%title%" -T "ALBUM=%albumtitle%" -T "DATE=%year%" -T "TRACKNUMBER=%tracknr%" -T "GENRE=%genre%" -T "PERFORMER=%albuminterpret%" -T "COMPOSER=%composer%" %haslyrics%--tag-from-file=LYRICS="%lyricsfile%"%haslyrics% -T "ALBUMARTIST=%albumartist%" -T "DISCNUMBER=%cdnumber%" -T "TOTALDISCS=%totalcds%" -T "TOTALTRACKS=%numtracks%" -T "COMMENT=%comment%" %source% -o %dest%
TOC of the extracted CD
Track | Start | Length | Start sector | End sector
---------------------------------------------------------
1 | 0:00.00 | 11:14.22 | 0 | 50571
2 | 11:14.22 | 4:03.37 | 50572 | 68833
3 | 15:17.59 | 6:02.72 | 68834 | 96055
4 | 21:20.56 | 6:13.68 | 96056 | 124098
5 | 27:34.49 | 5:06.50 | 124099 | 147098
6 | 32:41.24 | 4:53.39 | 147099 | 169112
7 | 37:34.63 | 5:13.30 | 169113 | 192617
8 | 42:48.18 | 6:59.04 | 192618 | 224046
9 | 49:47.22 | 6:23.22 | 224047 | 252793
10 | 56:10.44 | 3:25.16 | 252794 | 268184
11 | 59:35.60 | 7:36.51 | 268185 | 302435
12 | 67:12.36 | 3:09.33 | 302436 | 316643
Track 1
Filename C:\EAC rips\01 - Albumblatt für Herrn Schprögel.wav
Pre-gap length 0:00:02.00
Peak level 100.0 %
Extraction speed 1.2 X
Track quality 99.9 %
Test CRC 7C1D88EB
Copy CRC 7C1D88EB
Track not present in AccurateRip database
Copy OK
Track 2
Filename C:\EAC rips\02 - Pàrl.wav
Pre-gap length 0:00:02.00
Peak level 100.0 %
Extraction speed 1.4 X
Track quality 100.0 %
Test CRC F165BD36
Copy CRC F165BD36
Track not present in AccurateRip database
Copy OK
Track 3
Filename C:\EAC rips\03 - Au bois.wav
Pre-gap length 0:00:02.00
Peak level 100.0 %
Extraction speed 1.6 X
Track quality 100.0 %
Test CRC 67F4B8AB
Copy CRC 67F4B8AB
Track not present in AccurateRip database
Copy OK
Track 4
Filename C:\EAC rips\04 - Suite en Eb - andante misterioso.wav
Pre-gap length 0:00:02.00
Peak level 100.0 %
Extraction speed 1.7 X
Track quality 100.0 %
Test CRC 17B3E986
Copy CRC 17B3E986
Track not present in AccurateRip database
Copy OK
Track 5
Filename C:\EAC rips\05 - Suite en Eb - agitato.wav
Pre-gap length 0:00:02.00
Peak level 100.0 %
Extraction speed 1.8 X
Track quality 100.0 %
Test CRC E7551CF9
Copy CRC E7551CF9
Track not present in AccurateRip database
Copy OK
Track 6
Filename C:\EAC rips\06 - Suite en Eb - zoppicando.wav
Pre-gap length 0:00:02.00
Peak level 100.0 %
Extraction speed 1.8 X
Track quality 100.0 %
Test CRC FBDC02F6
Copy CRC FBDC02F6
Track not present in AccurateRip database
Copy OK
Track 7
Filename C:\EAC rips\07 - Suite en Eb - tempestoso.wav
Peak level 100.0 %
Extraction speed 1.8 X
Track quality 99.9 %
Test CRC F7F77B82
Copy CRC F7F77B82
Track not present in AccurateRip database
Copy OK
Track 8
Filename C:\EAC rips\08 - Lalila.wav
Pre-gap length 0:00:01.74
Peak level 99.7 %
Extraction speed 2.1 X
Track quality 100.0 %
Test CRC 3195C545
Copy CRC 3195C545
Track not present in AccurateRip database
Copy OK
Track 9
Filename C:\EAC rips\09 - Autägleche Waudverchehr.wav
Pre-gap length 0:00:02.00
Peak level 100.0 %
Extraction speed 2.2 X
Track quality 100.0 %
Test CRC 554BF881
Copy CRC 554BF881
Track not present in AccurateRip database
Copy OK
Track 10
Filename C:\EAC rips\10 - Au bois (Spacetet version).wav
Pre-gap length 0:00:02.00
Peak level 99.5 %
Extraction speed 2.1 X
Track quality 100.0 %
Test CRC C38678E9
Copy CRC C38678E9
Track not present in AccurateRip database
Copy OK
Track 11
Filename C:\EAC rips\11 - Design Your Future.wav
Pre-gap length 0:00:02.00
Peak level 100.0 %
Extraction speed 2.4 X
Track quality 100.0 %
Test CRC AAE1FE75
Copy CRC AAE1FE75
Track not present in AccurateRip database
Copy OK
Track 12
Filename C:\EAC rips\12 - Oh my God.wav
Pre-gap length 0:00:02.00
Peak level 100.0 %
Extraction speed 2.2 X
Track quality 100.0 %
Test CRC 30649752
Copy CRC 30649752
Track not present in AccurateRip database
Copy OK
None of the tracks are present in the AccurateRip database
No errors occurred
End of status report
---- CUETools DB Plugin V2.1.4
[CTDB TOCID: mdgw4vSDbAsfGVX3ZMR_LuXzBeE-] found
Submit result: already submitted
Track | CTDB Status
1 | (2/2) Accurately ripped
2 | (2/2) Accurately ripped
3 | (2/2) Accurately ripped
4 | (2/2) Accurately ripped
5 | (2/2) Accurately ripped
6 | (2/2) Accurately ripped
7 | (2/2) Accurately ripped
8 | (2/2) Accurately ripped
9 | (2/2) Accurately ripped
10 | (2/2) Accurately ripped
11 | (2/2) Accurately ripped
12 | (2/2) Accurately ripped
==== Log checksum 7820AF9422F767F78960720BB65EB9C7245D9F3AC185C0E03BA0F4B26545198F ====
 
Содержание индексной карты (.CUE)
REM GENRE Jazz
REM DATE 2013
REM DISCID C3107D0C
REM COMMENT "ExactAudioCopy v1.0b3"
CATALOG 7640114794452
PERFORMER "Lucien Dubuis Trio & The Spacetet"
TITLE "Design Your Future"
FILE "01 - Albumblatt für Herrn Schprögel.wav" WAVE
TRACK 01 AUDIO
TITLE "Albumblatt für Herrn Schprögel"
PERFORMER "Lucien Dubuis Trio & The Spacetet"
ISRC CH2171344501
INDEX 01 00:00:00
TRACK 02 AUDIO
TITLE "Pàrl"
PERFORMER "Lucien Dubuis Trio & The Spacetet"
ISRC CH2171344502
INDEX 00 11:12:22
FILE "02 - Pàrl.wav" WAVE
INDEX 01 00:00:00
TRACK 03 AUDIO
TITLE "Au bois"
PERFORMER "Lucien Dubuis Trio & The Spacetet"
ISRC CH2171344503
INDEX 00 04:01:37
FILE "03 - Au bois.wav" WAVE
INDEX 01 00:00:00
TRACK 04 AUDIO
TITLE "Suite en Eb : andante misterioso"
PERFORMER "Lucien Dubuis Trio & The Spacetet"
ISRC CH2171344504
INDEX 00 06:00:72
FILE "04 - Suite en Eb - andante misterioso.wav" WAVE
INDEX 01 00:00:00
TRACK 05 AUDIO
TITLE "Suite en Eb : agitato"
PERFORMER "Lucien Dubuis Trio & The Spacetet"
ISRC CH2171344505
INDEX 00 06:11:68
FILE "05 - Suite en Eb - agitato.wav" WAVE
INDEX 01 00:00:00
TRACK 06 AUDIO
TITLE "Suite en Eb : zoppicando"
PERFORMER "Lucien Dubuis Trio & The Spacetet"
ISRC CH2171344506
INDEX 00 05:04:50
FILE "06 - Suite en Eb - zoppicando.wav" WAVE
INDEX 01 00:00:00
FILE "07 - Suite en Eb - tempestoso.wav" WAVE
TRACK 07 AUDIO
TITLE "Suite en Eb : tempestoso"
PERFORMER "Lucien Dubuis Trio & The Spacetet"
ISRC CH2171344507
INDEX 01 00:00:00
TRACK 08 AUDIO
TITLE "Lalila"
PERFORMER "Lucien Dubuis Trio & The Spacetet"
ISRC CH2171344508
INDEX 00 05:11:31
FILE "08 - Lalila.wav" WAVE
INDEX 01 00:00:00
TRACK 09 AUDIO
TITLE "Autägleche Waudverchehr"
PERFORMER "Lucien Dubuis Trio & The Spacetet"
ISRC CH2171344509
INDEX 00 06:57:04
FILE "09 - Autägleche Waudverchehr.wav" WAVE
INDEX 01 00:00:00
TRACK 10 AUDIO
TITLE "Au bois (Spacetet version)"
PERFORMER "Lucien Dubuis Trio & The Spacetet"
ISRC CH2171344510
INDEX 00 06:21:22
FILE "10 - Au bois (Spacetet version).wav" WAVE
INDEX 01 00:00:00
TRACK 11 AUDIO
TITLE "Design Your Future"
PERFORMER "Lucien Dubuis Trio & The Spacetet"
ISRC CH2171344511
INDEX 00 03:23:16
FILE "11 - Design Your Future.wav" WAVE
INDEX 01 00:00:00
TRACK 12 AUDIO
TITLE "Oh My God"
PERFORMER "Lucien Dubuis Trio & The Spacetet"
ISRC CH2171344512
INDEX 00 07:34:51
FILE "12 - Oh My God.wav" WAVE
INDEX 01 00:00:00
Any questions -> support@pro-jazz.com. По всем вопросам пишите -> support@pro-jazz.com
17:08
148
Нет комментариев. Ваш будет первым!