Вы используете незарегистрированную версию компонента "Вкладки"!

Поиск

(Avant-Garde, Contemporary Jazz, Unit Records) Linda Jozefowski - For My Dead Folks - 2011, FLAC (tracks+.cue), lossless

(Avant-Garde, Contemporary Jazz, Unit Records) Linda Jozefowski - For My Dead Folks - 2011, FLAC (tracks+.cue), lossless
Треклист:
Linda Jozefowski / For My Dead Folks
Жанр: Avant-Garde, Contemporary Jazz, Unit Records
Страна-производитель диска: Switzerland
Год издания: 2011
Издатель (лейбл): Unit Records
Номер по каталогу: UTR 4311
Аудиокодек: FLAC (*.flac)
Тип рипа: tracks+.cue
Битрейт аудио: lossless
Продолжительность: 38:40
Источник (релизер): Max Monteiro
Наличие сканов в содержимом раздачи: нет
Треклист:
1. Dangerous Temptations 6:44
2. Afrodite 6:52
3. Hello Wayne 7:32
4. Back to Atlantis 7:04
5. For My Dead Folks 5:06
6. Todi 5:22
All compositions arranged by Linda Jozefowski except « Afrodite » & « Todi » (co-arranged by Jean-Lou Treboux).
 
Лог создания рипа
Exact Audio Copy V1.0 beta 3 from 29. August 2011
EAC extraction logfile from 14. May 2013, 16:36
Linda Jozefowski / For My Dead Folks
Used drive : SlimtypeeNAU508 5 Adapter: 1 ID: 0
Read mode : Secure
Utilize accurate stream : Yes
Defeat audio cache : Yes
Make use of C2 pointers : No
Read offset correction : 6
Overread into Lead-In and Lead-Out : No
Fill up missing offset samples with silence : Yes
Delete leading and trailing silent blocks : No
Null samples used in CRC calculations : Yes
Used interface : Native Win32 interface for Win NT & 2000
Gap handling : Appended to previous track
Used output format : User Defined Encoder
Selected bitrate : 768 kBit/s
Quality : High
Add ID3 tag : No
Command line compressor : C:\Program Files (x86)\Exact Audio Copy\Flac\flac.exe
Additional command line options : -8 -V -T "ARTIST=%artist%" -T "TITLE=%title%" -T "ALBUM=%albumtitle%" -T "DATE=%year%" -T "TRACKNUMBER=%tracknr%" -T "GENRE=%genre%" -T "PERFORMER=%albuminterpret%" -T "COMPOSER=%composer%" %haslyrics%--tag-from-file=LYRICS="%lyricsfile%"%haslyrics% -T "ALBUMARTIST=%albumartist%" -T "DISCNUMBER=%cdnumber%" -T "TOTALDISCS=%totalcds%" -T "TOTALTRACKS=%numtracks%" -T "COMMENT=%comment%" %source% -o %dest%
TOC of the extracted CD
Track | Start | Length | Start sector | End sector
---------------------------------------------------------
1 | 0:00.00 | 6:43.49 | 0 | 30273
2 | 6:43.49 | 6:52.36 | 30274 | 61209
3 | 13:36.10 | 7:31.51 | 61210 | 95085
4 | 21:07.61 | 7:04.31 | 95086 | 126916
5 | 28:12.17 | 5:05.52 | 126917 | 149843
6 | 33:17.69 | 5:21.46 | 149844 | 173964
Track 1
Filename C:\EAC rips\01 - Dangerous Temptations.wav
Pre-gap length 0:00:02.00
Peak level 99.3 %
Extraction speed 2.2 X
Track quality 100.0 %
Test CRC 2515857F
Copy CRC 2515857F
Track not present in AccurateRip database
Copy OK
Track 2
Filename C:\EAC rips\02 - Afrodite.wav
Peak level 100.0 %
Extraction speed 2.6 X
Track quality 100.0 %
Test CRC AB529413
Copy CRC AB529413
Track not present in AccurateRip database
Copy OK
Track 3
Filename C:\EAC rips\03 - Hello Wayne.wav
Peak level 100.0 %
Extraction speed 3.0 X
Track quality 100.0 %
Test CRC 858E4786
Copy CRC 858E4786
Track not present in AccurateRip database
Copy OK
Track 4
Filename C:\EAC rips\04 - Back to Atlantis.wav
Peak level 100.0 %
Extraction speed 3.3 X
Track quality 100.0 %
Test CRC 31A9CC5B
Copy CRC 31A9CC5B
Track not present in AccurateRip database
Copy OK
Track 5
Filename C:\EAC rips\05 - For My Dead Folks.wav
Peak level 98.6 %
Extraction speed 3.4 X
Track quality 100.0 %
Test CRC 9ED742B4
Copy CRC 9ED742B4
Track not present in AccurateRip database
Copy OK
Track 6
Filename C:\EAC rips\06 - Todi.wav
Peak level 98.9 %
Extraction speed 3.6 X
Track quality 100.0 %
Test CRC D3B79F5F
Copy CRC D3B79F5F
Track not present in AccurateRip database
Copy OK
None of the tracks are present in the AccurateRip database
No errors occurred
End of status report
---- CUETools DB Plugin V2.1.4
[CTDB TOCID: UfmeMG41LLkAeIOUozeN2UZduNM-] disk not present in database
Submit result: UfmeMG41LLkAeIOUozeN2UZduNM- has been uploaded
==== Log checksum EF1BA95D42CBC9E678E5F5DC9C6BFF7C456C65583929DDC78881C9D441644A79 ====
 
Содержание индексной карты (.CUE)
REM GENRE Jazz
REM DATE 2011
REM DISCID 5E090F06
REM COMMENT "ExactAudioCopy v1.0b3"
CATALOG 7640114793110
PERFORMER "Linda Jozefowski"
TITLE "For My Dead Folks"
FILE "01 - Dangerous Temptations.wav" WAVE
TRACK 01 AUDIO
TITLE "Dangerous Temptations"
PERFORMER "Linda Jozefowski"
ISRC CH2171131101
INDEX 01 00:00:00
FILE "02 - Afrodite.wav" WAVE
TRACK 02 AUDIO
TITLE "Afrodite"
PERFORMER "Linda Jozefowski"
ISRC CH2171131102
INDEX 01 00:00:00
FILE "03 - Hello Wayne.wav" WAVE
TRACK 03 AUDIO
TITLE "Hello Wayne"
PERFORMER "Linda Jozefowski"
ISRC CH2171131103
INDEX 01 00:00:00
FILE "04 - Back to Atlantis.wav" WAVE
TRACK 04 AUDIO
TITLE "Back to Atlantis"
PERFORMER "Linda Jozefowski"
ISRC CH2171131104
INDEX 01 00:00:00
FILE "05 - For My Dead Folks.wav" WAVE
TRACK 05 AUDIO
TITLE "For My Dead Folks"
PERFORMER "Linda Jozefowski"
ISRC CH2171131105
INDEX 01 00:00:00
FILE "06 - Todi.wav" WAVE
TRACK 06 AUDIO
TITLE "Todi"
PERFORMER "Linda Jozefowski"
ISRC CH2171131106
INDEX 01 00:00:00
Доп. информация: Recorded on 11-12 December 2010 at Studio de la Fonderie, Fribourg / Switzerland.
 
Состав
Linda Jozefowski – Flute
Jean-Lou Treboux – Vibraphone
Charly Vilmart – Double-Bass
Maxence Sibille – Drums
Any questions -> support@pro-jazz.com. По всем вопросам пишите -> support@pro-jazz.com
13:14
194
Нет комментариев. Ваш будет первым!