Вы используете незарегистрированную версию компонента "Вкладки"!

Поиск

(Avant-garde, contemporary jazz) Klaus Konig (with David Moss, the Bobs, Klaus Konig Orchestra) - Reviews - 1996, APE (image+.cue), lossless

Треклист:
Klaus Konig - Reviews
Жанр: Avant-garde, contemporary jazz
Год выпуска диска: 1996
Производитель диска: enja (ENJ-9061 2)
Аудио кодек: APE
Тип рипа: image+.cue
Битрейт аудио: lossless
Продолжительность: 74'30''
Трэклист:
1. Sniffing Attitudes 07:03
2. Harry Laughs 09:55
3. Who 's That Guy 05:03
4. Mission To The Stars 05:56
5. Multiple Choice 07:41
6. A Matter Of Taste 05:19
7. Tuba Boons 09:04
8. Harry Laughs Still 06:03
9. Black Polo Necks 06:46
10. Avantgarde Noise Pollution 06:33
11. Who Would Have Thought That 02:39
12. The Day After 02:28
Доп. информация: Mark Feldman vln
Claudio Puntin cl
Frank Gratkowski as
Matthias Schubert ts
Wollie Kaiser ss
Reiner Winterschladen tp
John D'earth tp
Ray Anderson tb
Jörg Huke tb
Michel Massot tuba
Markus Wienstroer g
Dieter Manderscheid b
Gerry Hemingway dr
David Moss narration
THE BOBS
Matthew Stull voc & Joe Finetti
Janie Scott voc & Richard Greene
 
Reviews
JazzTimes: Reviews is the final installment of composer Klaus König's cycle of five suites for orchestra and, occasionally, voices. It's a big surpise, given his previous four suites. On each, König's command of jazz' s various sub-genres and hybrids was thoroughly impressive, whether he lovingly illuminated them from within or impishly stretched them almost beyond recognition. While all the suites are durable, substantial works, The Song Of Songs approached masterpiece-dom, as it placed a timeless text into a score packed with dramatically charged themes, memorable songs, and thrilling choruses. Even when he played off the whimsical texts of Douglas Adams (The Hitchhiker's Guide To The Galaxy), König's works possessed a rare gravity.
In comparison, Reviews, sub-titled A Revue for Frank Zappa, is merely clever. Its conceit is this: König cut and pasted texts from reviews generated by the first four suites to create a libretto that lampoons critics' verbosity. It's enough for a very satisfying first listening. As the narrator, David Moss' FZ-tinged monologues have just the right smarminess. The other roles, sung by The Bobs, split the difference between the lacquered sheen of Ray Collins and the uncorked lunacy of Flo and Eddie. Throughout the program, there are radiant absurdities that reinforce the Zappa tie-in, such as the sophomorically smutty blues, "Tuba Boons."... In the end, Klaus König emerges as a more intriguing composer for having written Reviews. The premise is provocative, the music frequently exciting and the text is at times side-splitting. Though it doesn't have the staying power of most of his earlier suites, Reviews is perhaps the most daring work to date. - Bill Shoemaker, September 1996
MUSICA JAZZ: Come definire questa nuova fatica di Klaus König? Direi "opera swing" per una serie di motivi: il ritmo dondolante (più or meno veloce) sul quale poggia quasi per intero: lo scintillio degli ottoni paragonabile a quello delle orchestre di Woody Herman; l'irresitible quartetto vocale The Bobs che sembra una caricatura dei Manhattan Transfer; e via dicendo. Ma la dedica a Frank Zappa indica già che Reviews va a parare ad un alto tasso di invenzione e di sarcasmo. Dunque, questo lavoro è l'ultima parte di un ciclo de cinque suite -come le definisce König - tutte pubblicate dalla ENJA, e ha una caratteristica che lo contraddistingue: i testi, infatti, sono realizzati con brandelli di recensioni che le quattro suite precedenti hanno raccolto...Allora, per dirla in poche parole, Reviews è un esempio di rara, sana, creativa follia quale non ascoltavamo dall'epoca gloriosa del jazz olandese (Breuker, Bennink ecc.). Così ridotte a brandelli, le frasi dei colleghi che recensirono i quattro lavori precedenti non si sa se appaiono pìu insulse o pìu ridicole ( ed è con un certo imbarazzo che adesso sto scrivendo). Ma per passare a la musica: pìu che nella composizione e nell'arrangiamente, le scelte di König si revelano vincenti sopratutto riguardo agli interpreti, tutti musicisti dotati di une preparazione che consente loro di muoversi nell' ortodossia del jazz ma anche di rovesciarla imprevedibilmente nel grotesco. Sotto questo aspetto il disco ( che come una vera opera è corredata dal libretto) è da non perdere per la spettacolare performance dei cantanti, davvero capaci di tutto sul piano sonoro, e del narrator David Moss, dotato di quella vulcanica verve che generalmente si ascolta nei cartoni animati ( in Avantgarde Noise Pollution è davvero impressionante). A loro si aggiungono solisti del calibro do Wollie Kaiser, Michel Massot, Ray Anderson, Reiner Winterschaden, e un Gerry Hemingway la cui batteria è una specie di caldaia che fa marciare a spron battuto l'intera orchestra. (G.P.)
 
eaCloG
Exact Audio Copy V0.99 prebeta 4 from 23. January 2008
Отчёт EAC об извлечении, выполненном 17. декабря 2009, 11:21
Klaus Konig / Reviews
Дисковод: TSSTcorpCDDVDW SH-S203D Adapter: 3 ID: 0
Режим чтения : Достоверность
Использование точного потока : Да
Отключение кэша аудио : Да
Использование указателей C2 : Нет
Коррекция смещения при чтении : 6
Способность читать области Lead-in и Lead-out : Нет
Заполнение пропущенных сэмплов тишиной : Да
Удаление блоков с тишиной в начале и конце : Нет
При вычислениях CRC использовались нулевые сэмплы : Да
Интерфейс : Установленный внешний ASPI-интерфейс
Выходной формат : Внутренние WAV-операции
Формат сэмплов : 44.100 Гц; 16 бит; стерео
TOC извлечённого CD
Трек | Старт | Длительность | Начальный сектор | Конечный сектор
---------------------------------------------------------------------
1 | 0:00.00 | 7:03.69 | 0 | 31793
2 | 7:03.69 | 9:55.41 | 31794 | 76459
3 | 16:59.35 | 5:03.25 | 76460 | 99209
4 | 22:02.60 | 5:56.07 | 99210 | 125916
5 | 27:58.67 | 7:41.30 | 125917 | 160521
6 | 35:40.22 | 5:19.70 | 160522 | 184516
7 | 41:00.17 | 9:04.35 | 184517 | 225351
8 | 50:04.52 | 6:03.15 | 225352 | 252591
9 | 56:07.67 | 6:46.08 | 252592 | 283049
10 | 62:54.00 | 6:33.50 | 283050 | 312574
11 | 69:27.50 | 2:39.60 | 312575 | 324559
12 | 72:07.35 | 2:28.32 | 324560 | 335691
Характеристики диапазона извлечения и сообщения об ошибках
Выбранный диапазон
Имя файла E:\FOS\MISIC\KONIG\Klaus Konig - Reviews\Klaus Konig - Reviews.wav
Пиковый уровень 100.0 %
Качество диапазона 99.9 %
CRC копии 3A4DA1A8
Копирование... OK
Ошибок не произошло
Конец отчёта
Any questions -> support@pro-jazz.com. По всем вопросам пишите -> support@pro-jazz.com
17:18
103
Нет комментариев. Ваш будет первым!