Вы используете незарегистрированную версию компонента "Вкладки"!

Поиск

(Avant-Garde, Contemporary Jazz) Don Byron Quintet - No-Vibe Zone - Live at the Knitting Factory - 1996, FLAC (tracks+.cue), lossless

(Avant-Garde, Contemporary Jazz) Don Byron Quintet - No-Vibe Zone - Live at the Knitting Factory - 1996, FLAC (tracks+.cue), lossless
Треклист:
Don Byron Quintet / No-Vibe Zone - Live at the Knitting Factory
Жанр: Avant-Garde, Contemporary Jazz
Страна-производитель диска: U.S.A.
Год издания: 1996
Издатель (лейбл): Knitting Factory Works
Номер по каталогу: KFW 191
Аудиокодек: FLAC (*.flac)
Тип рипа: tracks+.cue
Битрейт аудио: lossless
Продолжительность: 1:07:52
Источник (релизер): Max Monteiro
Наличие сканов в содержимом раздачи: да
Треклист:
1. WRU (Ornette Coleman) 10:09
2. SEX/WORK (Clarence/Anita) (Don Byron) 15:43
3. Next Love (Don Byron) 11:48
4. The Allure of Entanglement (Don Byron) 5:23
5. Tangerine (Johnny Mercer / Victor Schertinger) 9:44
6. Tuskegee Strutter’s Ball (Don Byron) 15:04
 
Лог создания рипа
Exact Audio Copy V1.0 beta 3 from 29. August 2011
EAC extraction logfile from 22. April 2013, 10:47
Don Byron Quintet / No-Vibe Zone - Live at the Knitting Factory
Used drive : SlimtypeeNAU508 5 Adapter: 1 ID: 0
Read mode : Secure
Utilize accurate stream : Yes
Defeat audio cache : Yes
Make use of C2 pointers : No
Read offset correction : 6
Overread into Lead-In and Lead-Out : No
Fill up missing offset samples with silence : Yes
Delete leading and trailing silent blocks : No
Null samples used in CRC calculations : Yes
Used interface : Native Win32 interface for Win NT & 2000
Gap handling : Appended to previous track
Used output format : User Defined Encoder
Selected bitrate : 768 kBit/s
Quality : High
Add ID3 tag : No
Command line compressor : C:\Program Files (x86)\Exact Audio Copy\Flac\flac.exe
Additional command line options : -8 -V -T "ARTIST=%artist%" -T "TITLE=%title%" -T "ALBUM=%albumtitle%" -T "DATE=%year%" -T "TRACKNUMBER=%tracknr%" -T "GENRE=%genre%" -T "PERFORMER=%albuminterpret%" -T "COMPOSER=%composer%" %haslyrics%--tag-from-file=LYRICS="%lyricsfile%"%haslyrics% -T "ALBUMARTIST=%albumartist%" -T "DISCNUMBER=%cdnumber%" -T "TOTALDISCS=%totalcds%" -T "TOTALTRACKS=%numtracks%" -T "COMMENT=%comment%" %source% -o %dest%
TOC of the extracted CD
Track | Start | Length | Start sector | End sector
---------------------------------------------------------
1 | 0:00.00 | 10:09.19 | 0 | 45693
2 | 10:09.19 | 15:43.37 | 45694 | 116455
3 | 25:52.56 | 11:47.39 | 116456 | 169519
4 | 37:40.20 | 5:23.09 | 169520 | 193753
5 | 43:03.29 | 9:44.04 | 193754 | 237557
6 | 52:47.33 | 15:04.07 | 237558 | 305364
Track 1
Filename C:\EAC rips\01 - WRU.wav
Pre-gap length 0:00:02.00
Peak level 100.0 %
Extraction speed 2.7 X
Track quality 100.0 %
Test CRC 61942B3A
Copy CRC 61942B3A
Accurately ripped (confidence 4) [45DEBBF6] (AR v1)
Copy OK
Track 2
Filename C:\EAC rips\02 - Sex-Work (Clarence-Anita).wav
Peak level 100.0 %
Extraction speed 3.2 X
Track quality 99.9 %
Test CRC 059A60FA
Copy CRC 059A60FA
Accurately ripped (confidence 4) [DDAB3726] (AR v1)
Copy OK
Track 3
Filename C:\EAC rips\03 - Next Love.wav
Peak level 100.0 %
Extraction speed 3.9 X
Track quality 100.0 %
Test CRC 042F84A6
Copy CRC 042F84A6
Accurately ripped (confidence 4) [2E3B3826] (AR v1)
Copy OK
Track 4
Filename C:\EAC rips\04 - The Allure of Entanglement.wav
Peak level 100.0 %
Extraction speed 4.1 X
Track quality 100.0 %
Test CRC 52BAF9CB
Copy CRC 52BAF9CB
Accurately ripped (confidence 4) [58EC4E1F] (AR v1)
Copy OK
Track 5
Filename C:\EAC rips\05 - Tangerine.wav
Peak level 100.0 %
Extraction speed 4.5 X
Track quality 100.0 %
Test CRC 8D17F903
Copy CRC 8D17F903
Accurately ripped (confidence 4) [9FF089B9] (AR v1)
Copy OK
Track 6
Filename C:\EAC rips\06 - Tuskegee Strutter's Ball.wav
Peak level 99.9 %
Extraction speed 4.9 X
Track quality 100.0 %
Test CRC A30BA792
Copy CRC A30BA792
Accurately ripped (confidence 4) [16229858] (AR v1)
Copy OK
All tracks accurately ripped
No errors occurred
End of status report
---- CUETools DB Plugin V2.1.4
[CTDB TOCID: fX44zvi65HQ4lrG5R78BVEUWuok-] found
Submit result: fX44zvi65HQ4lrG5R78BVEUWuok- has been confirmed
Track | CTDB Status
1 | (1/1) Accurately ripped
2 | (1/1) Accurately ripped
3 | (1/1) Accurately ripped
4 | (1/1) Accurately ripped
5 | (1/1) Accurately ripped
6 | (1/1) Accurately ripped
==== Log checksum 64B785D9E654A70FF5BF5CC1C1FDC1BB7FC515B4DA803115C4CCD57AF20BBD62 ====
 
Содержание индексной карты (.CUE)
REM GENRE Jazz
REM DATE 1996
REM DISCID 4C0FE706
REM COMMENT "ExactAudioCopy v1.0b3"
PERFORMER "Don Byron Quintet"
TITLE "No-Vibe Zone - Live at the Knitting Factory"
FILE "01 - WRU.wav" WAVE
TRACK 01 AUDIO
TITLE "WRU"
PERFORMER "Don Byron Quintet"
FLAGS DCP
INDEX 01 00:00:00
FILE "02 - Sex-Work (Clarence-Anita).wav" WAVE
TRACK 02 AUDIO
TITLE "Sex/Work (Clarence/Anita)"
PERFORMER "Don Byron Quintet"
FLAGS DCP
INDEX 01 00:00:00
FILE "03 - Next Love.wav" WAVE
TRACK 03 AUDIO
TITLE "Next Love"
PERFORMER "Don Byron Quintet"
FLAGS DCP
INDEX 01 00:00:00
FILE "04 - The Allure of Entanglement.wav" WAVE
TRACK 04 AUDIO
TITLE "The Allure of Entanglement"
PERFORMER "Don Byron Quintet"
FLAGS DCP
INDEX 01 00:00:00
FILE "05 - Tangerine.wav" WAVE
TRACK 05 AUDIO
TITLE "Tangerine"
PERFORMER "Don Byron Quintet"
FLAGS DCP
INDEX 01 00:00:00
FILE "06 - Tuskegee Strutter's Ball.wav" WAVE
TRACK 06 AUDIO
TITLE "Tuskegee Strutter's Ball"
PERFORMER "Don Byron Quintet"
FLAGS DCP
INDEX 01 00:00:00
Доп. информация: Recorded live at the Knitting Factory January 7, 1996.
 
Состав
Don Byron – Clarinet
David Gilmore – Guitar
Uri Caine – Piano
Kenny Davis – Bass
Marvin « Smitty » Smith – Drums
Any questions -> support@pro-jazz.com. По всем вопросам пишите -> support@pro-jazz.com
11:21
185
Нет комментариев. Ваш будет первым!